  0
SECTION
  2
HEADER
  9
$ACADVER
  1
AC1018
  9
$ACADMAINTVER
 70
     0
  9
$DWGCODEPAGE
  3
ANSI_1252
  9
$INSBASE
 10
0.0
 20
0.0
 30
0.0
  9
$EXTMIN
 10
-257.6379618198387
 20
4.13591899505093
 30
0.0
  9
$EXTMAX
 10
39.36203818015937
 20
214.135918995051
 30
0.0
  9
$LIMMIN
 10
0.0
 20
0.0
  9
$LIMMAX
 10
12.0
 20
9.0
  9
$ORTHOMODE
 70
     0
  9
$REGENMODE
 70
     1
  9
$FILLMODE
 70
     1
  9
$QTEXTMODE
 70
     0
  9
$MIRRTEXT
 70
     1
  9
$LTSCALE
 40
1.0
  9
$ATTMODE
 70
     1
  9
$TEXTSIZE
 40
0.2
  9
$TRACEWID
 40
0.05
  9
$TEXTSTYLE
  7
Standard
  9
$CLAYER
  8
0
  9
$CELTYPE
  6
ByLayer
  9
$CECOLOR
 62
   256
  9
$CELTSCALE
 40
1.0
  9
$DISPSILH
 70
     0
  9
$DIMSCALE
 40
1.0
  9
$DIMASZ
 40
0.18
  9
$DIMEXO
 40
0.0625
  9
$DIMDLI
 40
0.38
  9
$DIMRND
 40
0.0
  9
$DIMDLE
 40
0.0
  9
$DIMEXE
 40
0.18
  9
$DIMTP
 40
0.0
  9
$DIMTM
 40
0.0
  9
$DIMTXT
 40
0.18
  9
$DIMCEN
 40
0.09
  9
$DIMTSZ
 40
0.0
  9
$DIMTOL
 70
     0
  9
$DIMLIM
 70
     0
  9
$DIMTIH
 70
     1
  9
$DIMTOH
 70
     1
  9
$DIMSE1
 70
     0
  9
$DIMSE2
 70
     0
  9
$DIMTAD
 70
     0
  9
$DIMZIN
 70
     0
  9
$DIMBLK
  1

  9
$DIMASO
 70
     1
  9
$DIMSHO
 70
     1
  9
$DIMPOST
  1

  9
$DIMAPOST
  1

  9
$DIMALT
 70
     0
  9
$DIMALTD
 70
     2
  9
$DIMALTF
 40
25.4
  9
$DIMLFAC
 40
1.0
  9
$DIMTOFL
 70
     0
  9
$DIMTVP
 40
0.0
  9
$DIMTIX
 70
     0
  9
$DIMSOXD
 70
     0
  9
$DIMSAH
 70
     0
  9
$DIMBLK1
  1

  9
$DIMBLK2
  1

  9
$DIMSTYLE
  2
Standard
  9
$DIMCLRD
 70
     0
  9
$DIMCLRE
 70
     0
  9
$DIMCLRT
 70
     0
  9
$DIMTFAC
 40
1.0
  9
$DIMGAP
 40
0.09
  9
$DIMJUST
 70
     0
  9
$DIMSD1
 70
     0
  9
$DIMSD2
 70
     0
  9
$DIMTOLJ
 70
     1
  9
$DIMTZIN
 70
     0
  9
$DIMALTZ
 70
     0
  9
$DIMALTTZ
 70
     0
  9
$DIMUPT
 70
     0
  9
$DIMDEC
 70
     4
  9
$DIMTDEC
 70
     4
  9
$DIMALTU
 70
     2
  9
$DIMALTTD
 70
     2
  9
$DIMTXSTY
  7
Standard
  9
$DIMAUNIT
 70
     0
  9
$DIMADEC
 70
     0
  9
$DIMALTRND
 40
0.0
  9
$DIMAZIN
 70
     0
  9
$DIMDSEP
 70
    46
  9
$DIMATFIT
 70
     3
  9
$DIMFRAC
 70
     0
  9
$DIMLDRBLK
  1

  9
$DIMLUNIT
 70
     2
  9
$DIMLWD
 70
    -2
  9
$DIMLWE
 70
    -2
  9
$DIMTMOVE
 70
     0
  9
$LUNITS
 70
     2
  9
$LUPREC
 70
     4
  9
$SKETCHINC
 40
0.1
  9
$FILLETRAD
 40
0.5
  9
$AUNITS
 70
     0
  9
$AUPREC
 70
     0
  9
$MENU
  1
.
  9
$ELEVATION
 40
0.0
  9
$PELEVATION
 40
0.0
  9
$THICKNESS
 40
0.0
  9
$LIMCHECK
 70
     0
  9
$CHAMFERA
 40
0.0
  9
$CHAMFERB
 40
0.0
  9
$CHAMFERC
 40
0.0
  9
$CHAMFERD
 40
0.0
  9
$SKPOLY
 70
     0
  9
$TDCREATE
 40
2459049.020386678
  9
$TDUCREATE
 40
2459048.937053345
  9
$TDUPDATE
 40
2459049.020386863
  9
$TDUUPDATE
 40
2459048.93705353
  9
$TDINDWG
 40
0.0000000116
  9
$TDUSRTIMER
 40
0.0000000116
  9
$USRTIMER
 70
     1
  9
$ANGBASE
 50
0.0
  9
$ANGDIR
 70
     0
  9
$PDMODE
 70
     0
  9
$PDSIZE
 40
0.0
  9
$PLINEWID
 40
0.0
  9
$SPLFRAME
 70
     0
  9
$SPLINETYPE
 70
     6
  9
$SPLINESEGS
 70
     8
  9
$HANDSEED
  5
395
  9
$SURFTAB1
 70
     6
  9
$SURFTAB2
 70
     6
  9
$SURFTYPE
 70
     6
  9
$SURFU
 70
     6
  9
$SURFV
 70
     6
  9
$UCSBASE
  2

  9
$UCSNAME
  2

  9
$UCSORG
 10
0.0
 20
0.0
 30
0.0
  9
$UCSXDIR
 10
1.0
 20
0.0
 30
0.0
  9
$UCSYDIR
 10
0.0
 20
1.0
 30
0.0
  9
$UCSORTHOREF
  2

  9
$UCSORTHOVIEW
 70
     0
  9
$UCSORGTOP
 10
0.0
 20
0.0
 30
0.0
  9
$UCSORGBOTTOM
 10
0.0
 20
0.0
 30
0.0
  9
$UCSORGLEFT
 10
0.0
 20
0.0
 30
0.0
  9
$UCSORGRIGHT
 10
0.0
 20
0.0
 30
0.0
  9
$UCSORGFRONT
 10
0.0
 20
0.0
 30
0.0
  9
$UCSORGBACK
 10
0.0
 20
0.0
 30
0.0
  9
$PUCSBASE
  2

  9
$PUCSNAME
  2

  9
$PUCSORG
 10
0.0
 20
0.0
 30
0.0
  9
$PUCSXDIR
 10
1.0
 20
0.0
 30
0.0
  9
$PUCSYDIR
 10
0.0
 20
1.0
 30
0.0
  9
$PUCSORTHOREF
  2

  9
$PUCSORTHOVIEW
 70
     0
  9
$PUCSORGTOP
 10
0.0
 20
0.0
 30
0.0
  9
$PUCSORGBOTTOM
 10
0.0
 20
0.0
 30
0.0
  9
$PUCSORGLEFT
 10
0.0
 20
0.0
 30
0.0
  9
$PUCSORGRIGHT
 10
0.0
 20
0.0
 30
0.0
  9
$PUCSORGFRONT
 10
0.0
 20
0.0
 30
0.0
  9
$PUCSORGBACK
 10
0.0
 20
0.0
 30
0.0
  9
$USERI1
 70
     0
  9
$USERI2
 70
     0
  9
$USERI3
 70
     0
  9
$USERI4
 70
     0
  9
$USERI5
 70
     0
  9
$USERR1
 40
20.1
  9
$USERR2
 40
0.0
  9
$USERR3
 40
0.0
  9
$USERR4
 40
0.0
  9
$USERR5
 40
0.0
  9
$WORLDVIEW
 70
     1
  9
$SHADEDGE
 70
     3
  9
$SHADEDIF
 70
    70
  9
$TILEMODE
 70
     1
  9
$MAXACTVP
 70
    64
  9
$PINSBASE
 10
0.0
 20
0.0
 30
0.0
  9
$PLIMCHECK
 70
     0
  9
$PEXTMIN
 10
1.00000000000000E+20
 20
1.00000000000000E+20
 30
1.00000000000000E+20
  9
$PEXTMAX
 10
-1.00000000000000E+20
 20
-1.00000000000000E+20
 30
-1.00000000000000E+20
  9
$PLIMMIN
 10
0.0
 20
0.0
  9
$PLIMMAX
 10
12.0
 20
9.0
  9
$UNITMODE
 70
     0
  9
$VISRETAIN
 70
     1
  9
$PLINEGEN
 70
     0
  9
$PSLTSCALE
 70
     1
  9
$TREEDEPTH
 70
  3020
  9
$CMLSTYLE
  2
Standard
  9
$CMLJUST
 70
     0
  9
$CMLSCALE
 40
1.0
  9
$PROXYGRAPHICS
 70
     1
  9
$MEASUREMENT
 70
     1
  9
$CELWEIGHT
370
    -1
  9
$ENDCAPS
280
     0
  9
$JOINSTYLE
280
     0
  9
$LWDISPLAY
290
     0
  9
$INSUNITS
 70
     4
  9
$HYPERLINKBASE
  1

  9
$STYLESHEET
  1

  9
$XEDIT
290
     1
  9
$CEPSNTYPE
380
     0
  9
$PSTYLEMODE
290
     1
  9
$FINGERPRINTGUID
  2
{ac651b51-f0e4-4e0b-849c-8243cf31f012}
  9
$VERSIONGUID
  2
{FAEB1C32-E019-11D5-929B-00C0DF256EC4}
  9
$EXTNAMES
290
     1
  9
$PSVPSCALE
 40
0.0
  9
$OLESTARTUP
290
     0
  9
$SORTENTS
280
   127
  9
$INDEXCTL
280
     0
  9
$HIDETEXT
280
     1
  9
$XCLIPFRAME
290
     0
  9
$HALOGAP
280
     0
  9
$OBSCOLOR
 70
   257
  9
$OBSLTYPE
280
     0
  9
$INTERSECTIONDISPLAY
280
     0
  9
$INTERSECTIONCOLOR
 70
   257
  9
$DIMASSOC
280
     2
  9
$PROJECTNAME
  1

  0
ENDSEC
  0
SECTION
  2
CLASSES
  0
CLASS
  1
ACDBDICTIONARYWDFLT
  2
AcDbDictionaryWithDefault
  3
ObjectDBX Classes
 90
        0
 91
        3
280
     0
281
     0
  0
CLASS
  1
VISUALSTYLE
  2
AcDbVisualStyle
  3
ObjectDBX Classes
 90
     4095
 91
        3
280
     0
281
     0
  0
CLASS
  1
MATERIAL
  2
AcDbMaterial
  3
ObjectDBX Classes
 90
     1153
 91
        3
280
     0
281
     0
  0
CLASS
  1
SCALE
  2
AcDbScale
  3
ObjectDBX Classes
 90
     1153
 91
        3
280
     0
281
     0
  0
CLASS
  1
TABLESTYLE
  2
AcDbTableStyle
  3
ObjectDBX Classes
 90
     4095
 91
        3
280
     0
281
     0
  0
CLASS
  1
MLEADERSTYLE
  2
AcDbMLeaderStyle
  3
ACDB_MLEADERSTYLE_CLASS
 90
     4095
 91
        3
280
     0
281
     0
  0
CLASS
  1
SUN
  2
AcDbSun
  3
SCENEOE
 90
     1153
 91
        3
280
     0
281
     0
  0
CLASS
  1
DICTIONARYVAR
  2
AcDbDictionaryVar
  3
ObjectDBX Classes
 90
        0
 91
        3
280
     0
281
     0
  0
CLASS
  1
CELLSTYLEMAP
  2
AcDbCellStyleMap
  3
ObjectDBX Classes
 90
     1152
 91
        3
280
     0
281
     0
  0
ENDSEC
  0
SECTION
  2
TABLES
  0
TABLE
  2
VPORT
  5
8
102
{ACAD_XDICTIONARY
360
34E
102
}
330
0
100
AcDbSymbolTable
 70
     1
  0
VPORT
  5
29
330
8
100
AcDbSymbolTableRecord
100
AcDbViewportTableRecord
  2
*Active
 70
     0
 10
0.0
 20
0.0
 11
1.0
 21
1.0
 12
-109.1379618198397
 22
109.135918995051
 13
0.0
 23
0.0
 14
0.5
 24
0.5
 15
0.5
 25
0.5
 16
0.0
 26
0.0
 36
1.0
 17
0.0
 27
0.0
 37
0.0
 40
231.0000000000001
 41
1.60267857142857
 42
50.0
 43
0.0
 44
0.0
 50
0.0
 51
0.0
 71
     0
 72
   100
 73
     1
 74
     3
 75
     0
 76
     0
 77
     0
 78
     0
281
     0
 65
     1
110
0.0
120
0.0
130
0.0
111
1.0
121
0.0
131
0.0
112
0.0
122
1.0
132
0.0
 79
     0
146
0.0
  0
ENDTAB
  0
TABLE
  2
LTYPE
  5
5
330
0
100
AcDbSymbolTable
 70
     8
  0
LTYPE
  5
14
330
5
100
AcDbSymbolTableRecord
100
AcDbLinetypeTableRecord
  2
ByBlock
 70
     0
  3

 72
    65
 73
     0
 40
0.0
  0
LTYPE
  5
15
330
5
100
AcDbSymbolTableRecord
100
AcDbLinetypeTableRecord
  2
ByLayer
 70
     0
  3

 72
    65
 73
     0
 40
0.0
  0
LTYPE
  5
16
330
5
100
AcDbSymbolTableRecord
100
AcDbLinetypeTableRecord
  2
Continuous
 70
     0
  3
Solid line
 72
    65
 73
     0
 40
0.0
  0
LTYPE
  5
6E
330
5
100
AcDbSymbolTableRecord
100
AcDbLinetypeTableRecord
  2
DASHED
 70
     0
  3
Dashed
 72
    65
 73
     2
 40
15.0
 49
7.0
 74
     0
 49
-8.0
 74
     0
  0
LTYPE
  5
6F
330
5
100
AcDbSymbolTableRecord
100
AcDbLinetypeTableRecord
  2
DOTTED
 70
     0
  3
Dotted
 72
    65
 73
     2
 40
1.0
 49
0.0
 74
     0
 49
-1.0
 74
     0
  0
LTYPE
  5
70
330
5
100
AcDbSymbolTableRecord
100
AcDbLinetypeTableRecord
  2
DOT_CENTER
 70
     0
  3
Dot_Center
 72
    65
 73
     4
 40
14.0
 49
12.0
 74
     0
 49
-1.0
 74
     0
 49
0.0
 74
     0
 49
-1.0
 74
     0
  0
LTYPE
  5
71
330
5
100
AcDbSymbolTableRecord
100
AcDbLinetypeTableRecord
  2
LONG_DASHED
 70
     0
  3
Long_Dashed
 72
    65
 73
     2
 40
15.0
 49
10.0
 74
     0
 49
-5.0
 74
     0
  0
LTYPE
  5
72
330
5
100
AcDbSymbolTableRecord
100
AcDbLinetypeTableRecord
  2
DASH_CENTER
 70
     0
  3
Dash_Center
 72
    65
 73
     4
 40
14.0
 49
11.0
 74
     0
 49
-1.0
 74
     0
 49
1.0
 74
     0
 49
-1.0
 74
     0
  0
LTYPE
  5
73
330
5
100
AcDbSymbolTableRecord
100
AcDbLinetypeTableRecord
  2
PHANTOM
 70
     0
  3
Phantom
 72
    65
 73
     6
 40
13.0
 49
10.0
 74
     0
 49
-1.0
 74
     0
 49
0.0
 74
     0
 49
-1.0
 74
     0
 49
0.0
 74
     0
 49
-1.0
 74
     0
  0
LTYPE
  5
74
330
5
100
AcDbSymbolTableRecord
100
AcDbLinetypeTableRecord
  2
CENTER_DASH_DASH
 70
     0
  3
Center_Dash_Dash
 72
    65
 73
     6
 40
14.0
 49
9.0
 74
     0
 49
-1.0
 74
     0
 49
1.0
 74
     0
 49
-1.0
 74
     0
 49
1.0
 74
     0
 49
-1.0
 74
     0
  0
ENDTAB
  0
TABLE
  2
LAYER
  5
2
330
0
100
AcDbSymbolTable
 70
     2
  0
LAYER
  5
10
330
2
100
AcDbSymbolTableRecord
100
AcDbLayerTableRecord
  2
0
 70
     0
 62
     7
  6
Continuous
370
    -3
390
F
  0
LAYER
  5
75
330
2
100
AcDbSymbolTableRecord
100
AcDbLayerTableRecord
  2
1
 70
     0
 62
     7
  6
Continuous
370
    -3
390
F
  0
ENDTAB
  0
TABLE
  2
STYLE
  5
3
330
0
100
AcDbSymbolTable
 70
     5
  0
STYLE
  5
11
330
3
100
AcDbSymbolTableRecord
100
AcDbTextStyleTableRecord
  2
Standard
 70
     0
 40
0.0
 41
1.0
 50
0.0
 71
     0
 42
0.2
  3
txt
  4

  0
STYLE
  5
119
330
3
100
AcDbSymbolTableRecord
100
AcDbTextStyleTableRecord
  2
CONVERTER_11
 70
     0
 40
0.0
 41
0.9
 50
0.0
 71
     0
 42
0.2
  3
txt.shx
  4

  0
STYLE
  5
311
330
3
100
AcDbSymbolTableRecord
100
AcDbTextStyleTableRecord
  2
CONVERTER_12
 70
     0
 40
0.0
 41
0.81
 50
0.0
 71
     0
 42
0.2
  3
txt.shx
  4

  0
STYLE
  5
327
330
3
100
AcDbSymbolTableRecord
100
AcDbTextStyleTableRecord
  2
CONVERTER_13
 70
     0
 40
0.0
 41
0.72
 50
0.0
 71
     0
 42
0.2
  3
txt.shx
  4

  0
STYLE
  5
32A
330
3
100
AcDbSymbolTableRecord
100
AcDbTextStyleTableRecord
  2
CONVERTER_14
 70
     0
 40
0.0
 41
0.855
 50
0.0
 71
     0
 42
0.2
  3
txt.shx
  4

  0
ENDTAB
  0
TABLE
  2
VIEW
  5
6
330
0
100
AcDbSymbolTable
 70
     0
  0
ENDTAB
  0
TABLE
  2
UCS
  5
7
330
0
100
AcDbSymbolTable
 70
     0
  0
ENDTAB
  0
TABLE
  2
APPID
  5
9
330
0
100
AcDbSymbolTable
 70
     2
  0
APPID
  5
12
330
9
100
AcDbSymbolTableRecord
100
AcDbRegAppTableRecord
  2
ACAD
 70
     0
  0
APPID
  5
38D
330
9
100
AcDbSymbolTableRecord
100
AcDbRegAppTableRecord
  2
ACAD_MLEADERVER
 70
     0
  0
ENDTAB
  0
TABLE
  2
DIMSTYLE
  5
A
330
0
100
AcDbSymbolTable
 70
     5
100
AcDbDimStyleTable
  0
DIMSTYLE
105
27
330
A
100
AcDbSymbolTableRecord
100
AcDbDimStyleTableRecord
  2
Standard
 70
     0
178
     0
340
11
  0
DIMSTYLE
105
153
102
{ACAD_REACTORS
330
154
102
}
330
A
100
AcDbSymbolTableRecord
100
AcDbDimStyleTableRecord
  2
ME10_DIM_10
 70
     0
 41
3.5
 42
0.5
 44
1.5
 73
     0
 74
     0
 77
     1
 78
     8
140
3.5
147
2.0
172
     1
173
     1
174
     1
175
     1
176
     2
177
     2
178
     3
340
119
  0
DIMSTYLE
105
160
102
{ACAD_REACTORS
330
161
102
}
330
A
100
AcDbSymbolTableRecord
100
AcDbDimStyleTableRecord
  2
ME10_DIM_11
 70
     0
 41
3.5
 42
0.5
 44
1.5
 73
     0
 74
     0
 77
     1
 78
     8
140
3.5
147
2.0
172
     1
173
     1
174
     1
175
     1
176
     2
177
     2
178
     3
340
119
  0
DIMSTYLE
105
16B
102
{ACAD_REACTORS
330
16C
102
}
330
A
100
AcDbSymbolTableRecord
100
AcDbDimStyleTableRecord
  2
ME10_DIM_12
 70
     0
 41
3.5
 42
0.5
 44
1.5
 73
     0
 74
     0
 77
     1
 78
     8
140
3.5
147
2.0
172
     1
173
     1
174
     1
175
     1
176
     2
177
     2
271
     2
178
     3
271
     2
340
119
  0
DIMSTYLE
105
213
102
{ACAD_REACTORS
330
214
102
}
330
A
100
AcDbSymbolTableRecord
100
AcDbDimStyleTableRecord
  2
ME10_DIM_13
 70
     0
 41
3.5
 42
0.5
 44
1.5
 73
     0
 74
     0
 77
     1
 78
     8
140
3.5
147
2.0
172
     1
173
     1
174
     1
175
     1
176
     2
177
     2
271
     2
178
     3
271
     2
340
119
  0
ENDTAB
  0
TABLE
  2
BLOCK_RECORD
  5
1
330
0
100
AcDbSymbolTable
 70
    21
  0
BLOCK_RECORD
  5
1F
330
1
100
AcDbSymbolTableRecord
100
AcDbBlockTableRecord
  2
*Model_Space
340
22
  0
BLOCK_RECORD
  5
1B
330
1
100
AcDbSymbolTableRecord
100
AcDbBlockTableRecord
  2
*Paper_Space
340
1E
  0
BLOCK_RECORD
  5
23
330
1
100
AcDbSymbolTableRecord
100
AcDbBlockTableRecord
  2
*Paper_Space0
340
26
  0
BLOCK_RECORD
  5
76
330
1
100
AcDbSymbolTableRecord
100
AcDbBlockTableRecord
  2
FBS_3_8_select__1
340
0
102
{BLKREFS
331
7A
102
}
  0
BLOCK_RECORD
  5
79
330
1
100
AcDbSymbolTableRecord
100
AcDbBlockTableRecord
  2
Gen1
340
0
102
{BLKREFS
331
AC
102
}
  0
BLOCK_RECORD
  5
7D
330
1
100
AcDbSymbolTableRecord
100
AcDbBlockTableRecord
  2
FBS_3_8_select__2
340
0
102
{BLKREFS
331
81
102
}
  0
BLOCK_RECORD
  5
80
330
1
100
AcDbSymbolTableRecord
100
AcDbBlockTableRecord
  2
Back1
340
0
102
{BLKREFS
331
AD
102
}
  0
BLOCK_RECORD
  5
84
330
1
100
AcDbSymbolTableRecord
100
AcDbBlockTableRecord
  2
FBS_3_8_select__3
340
0
102
{BLKREFS
331
88
102
}
  0
BLOCK_RECORD
  5
87
330
1
100
AcDbSymbolTableRecord
100
AcDbBlockTableRecord
  2
Front1
340
0
102
{BLKREFS
331
AE
102
}
  0
BLOCK_RECORD
  5
8B
330
1
100
AcDbSymbolTableRecord
100
AcDbBlockTableRecord
  2
FBS_3_8_select__4
340
0
102
{BLKREFS
331
8F
102
}
  0
BLOCK_RECORD
  5
8E
330
1
100
AcDbSymbolTableRecord
100
AcDbBlockTableRecord
  2
Left1
340
0
102
{BLKREFS
331
AF
102
}
  0
BLOCK_RECORD
  5
92
330
1
100
AcDbSymbolTableRecord
100
AcDbBlockTableRecord
  2
FBS_3_8_select__5
340
0
102
{BLKREFS
331
96
102
}
  0
BLOCK_RECORD
  5
95
330
1
100
AcDbSymbolTableRecord
100
AcDbBlockTableRecord
  2
Right1
340
0
102
{BLKREFS
331
B0
102
}
  0
BLOCK_RECORD
  5
99
330
1
100
AcDbSymbolTableRecord
100
AcDbBlockTableRecord
  2
FBS_3_8_select__6
340
0
102
{BLKREFS
331
9D
102
}
  0
BLOCK_RECORD
  5
9C
330
1
100
AcDbSymbolTableRecord
100
AcDbBlockTableRecord
  2
Top1
340
0
102
{BLKREFS
331
B1
102
}
  0
BLOCK_RECORD
  5
A0
330
1
100
AcDbSymbolTableRecord
100
AcDbBlockTableRecord
  2
_rahmen
340
0
102
{BLKREFS
331
A7
102
}
  0
BLOCK_RECORD
  5
A3
330
1
100
AcDbSymbolTableRecord
100
AcDbBlockTableRecord
  2
_punkt
340
0
102
{BLKREFS
331
A8
102
}
  0
BLOCK_RECORD
  5
A6
330
1
100
AcDbSymbolTableRecord
100
AcDbBlockTableRecord
  2
A4I_CS
340
0
102
{BLKREFS
331
B2
102
}
  0
BLOCK_RECORD
  5
AB
330
1
100
AcDbSymbolTableRecord
100
AcDbBlockTableRecord
  2
1
340
0
102
{BLKREFS
331
B5
102
}
  0
BLOCK_RECORD
  5
148
330
1
100
AcDbSymbolTableRecord
100
AcDbBlockTableRecord
  2
*D17
340
0
  0
BLOCK_RECORD
  5
155
330
1
100
AcDbSymbolTableRecord
100
AcDbBlockTableRecord
  2
*D18
340
0
  0
BLOCK_RECORD
  5
162
330
1
100
AcDbSymbolTableRecord
100
AcDbBlockTableRecord
  2
*D19
340
0
  0
BLOCK_RECORD
  5
20A
330
1
100
AcDbSymbolTableRecord
100
AcDbBlockTableRecord
  2
*D20
340
0
  0
ENDTAB
  0
ENDSEC
  0
SECTION
  2
BLOCKS
  0
BLOCK
  5
20
330
1F
100
AcDbEntity
  8
0
100
AcDbBlockBegin
  2
*Model_Space
 70
     0
 10
0.0
 20
0.0
 30
0.0
  3
*Model_Space
  1

  0
ENDBLK
  5
21
330
1F
100
AcDbEntity
  8
0
100
AcDbBlockEnd
  0
BLOCK
  5
1C
330
1B
100
AcDbEntity
 67
     1
  8
0
100
AcDbBlockBegin
  2
*Paper_Space
 70
     0
 10
0.0
 20
0.0
 30
0.0
  3
*Paper_Space
  1

  0
ENDBLK
  5
1D
330
1B
100
AcDbEntity
 67
     1
  8
0
100
AcDbBlockEnd
  0
BLOCK
  5
24
330
23
100
AcDbEntity
  8
0
100
AcDbBlockBegin
  2
*Paper_Space0
 70
     0
 10
0.0
 20
0.0
 30
0.0
  3
*Paper_Space0
  1

  0
ENDBLK
  5
25
330
23
100
AcDbEntity
  8
0
100
AcDbBlockEnd
  0
BLOCK
  5
77
330
76
100
AcDbEntity
  8
0
100
AcDbBlockBegin
  2
FBS_3_8_select__1
 70
     0
 10
-25.11064073867236
 20
62.60317452981629
 30
0.0
  3
FBS_3_8_select__1
  1

  0
LINE
  5
B6
330
76
100
AcDbEntity
  8
0
  6
Continuous
 62
     7
100
AcDbLine
 10
-15.47282041564279
 20
79.30056623762025
 30
0.0
 11
-14.08717976958768
 21
78.90056623762025
 31
0.0
  0
LINE
  5
B7
330
76
100
AcDbEntity
  8
0
  6
Continuous
 62
     7
100
AcDbLine
 10
-15.47282041564283
 20
72.55824105949192
 30
0.0
 11
-15.47282041564279
 21
79.30056623762025
 31
0.0
  0
LINE
  5
B8
330
76
100
AcDbEntity
  8
0
  6
Continuous
 62
     7
100
AcDbLine
 10
-14.08717976958768
 20
78.90056623762025
 30
0.0
 11
-14.08717976958772
 21
72.15824105949191
 31
0.0
  0
LINE
  5
B9
330
76
100
AcDbEntity
  8
0
  6
Continuous
 62
     7
100
AcDbLine
 10
-14.08717976958768
 20
78.90056623762025
 30
0.0
 11
-14.50717976958765
 21
79.79683556803076
 31
0.0
  0
LINE
  5
BA
330
76
100
AcDbEntity
  8
0
  6
Continuous
 62
     7
100
AcDbLine
 10
-15.89282041564276
 20
80.19683556803076
 30
0.0
 11
-15.47282041564279
 21
79.30056623762025
 31
0.0
  0
LINE
  5
BB
330
76
100
AcDbEntity
  8
0
  6
Continuous
 62
     7
100
AcDbLine
 10
-13.90186370021321
 20
69.70458284095876
 30
0.0
 11
-12.50037231263965
 21
70.91830998566644
 31
0.0
  0
LINE
  5
BC
330
76
100
AcDbEntity
  8
0
  6
Continuous
 62
     7
100
AcDbLine
 10
-12.31217976956617
 20
73.73601290242757
 30
0.0
 11
-12.50037231263965
 21
70.91830998566644
 31
0.0
  0
LINE
  5
BD
330
76
100
AcDbEntity
  8
0
  6
Continuous
 62
     7
100
AcDbLine
 10
-16.00717976958769
 20
78.49779746235492
 30
0.0
 11
-16.00717976958755
 21
81.8623786697781
 31
0.0
  0
LINE
  5
BE
330
76
100
AcDbEntity
  8
0
  6
Continuous
 62
     7
100
AcDbLine
 10
-11.23935944656214
 20
94.52331864378188
 30
0.0
 11
-21.98935944656215
 21
85.21354555309915
 31
0.0
  0
LINE
  5
BF
330
76
100
AcDbEntity
  8
0
  6
Continuous
 62
     7
100
AcDbLine
 10
-11.68760298850506
 20
95.42909599739329
 30
0.0
 11
-21.98935944656215
 21
86.50751320111544
 31
0.0
  0
LINE
  5
C0
330
76
100
AcDbEntity
  8
0
  6
Continuous
 62
     7
100
AcDbLine
 10
-10.97596198694009
 20
89.40459213368291
 30
0.0
 11
-10.88935944656165
 21
89.98580991633202
 31
0.0
  0
LINE
  5
C1
330
76
100
AcDbEntity
  8
0
  6
Continuous
 62
     7
100
AcDbLine
 10
-11.23935944656214
 20
94.52331864378188
 30
0.0
 11
-11.68760298850506
 21
95.42909599739329
 31
0.0
  0
LINE
  5
C2
330
76
100
AcDbEntity
  8
0
  6
Continuous
 62
     7
100
AcDbLine
 10
-10.88935944656165
 20
97.60250334260343
 30
0.0
 11
-22.33935944656215
 21
87.68651246927116
 31
0.0
  0
LINE
  5
C3
330
76
100
AcDbEntity
  8
0
  6
Continuous
 62
     7
100
AcDbLine
 10
-18.60717976958771
 20
79.93299625171328
 30
0.0
 11
-18.82897245160687
 21
79.8358804681601
 31
0.0
  0
LINE
  5
C4
330
76
100
AcDbEntity
  8
0
  6
Continuous
 62
     7
100
AcDbLine
 10
-18.32596198694034
 20
80.44122920451376
 30
0.0
 11
-18.32596198694034
 21
83.03930541586708
 31
0.0
  0
LINE
  5
C5
330
76
100
AcDbEntity
  8
0
  6
Continuous
 62
     7
100
AcDbLine
 10
-18.6071797695877
 20
80.52240978576994
 30
0.0
 11
-18.60717976958771
 21
79.93299625171328
 31
0.0
  0
LINE
  5
C6
330
76
100
AcDbEntity
  8
0
  6
Continuous
 62
     7
100
AcDbLine
 10
-18.82897245160687
 20
79.8358804681601
 30
0.0
 11
-18.60717976958754
 21
79.61071261993861
 31
0.0
  0
LINE
  5
C7
330
76
100
AcDbEntity
  8
0
  6
Continuous
 62
     7
100
AcDbLine
 10
-18.60717976958754
 20
79.61071261993861
 30
0.0
 11
-16.00717976958755
 21
81.8623786697781
 31
0.0
  0
LINE
  5
C8
330
76
100
AcDbEntity
  8
0
  6
Continuous
 62
     7
100
AcDbLine
 10
-18.60717976958771
 20
79.93299625171328
 30
0.0
 11
-16.00717976958755
 21
82.18466230155292
 31
0.0
  0
LINE
  5
C9
330
76
100
AcDbEntity
  8
0
  6
Continuous
 62
     7
100
AcDbLine
 10
-15.89282041564276
 20
80.19683556803076
 30
0.0
 11
-15.89282041564275
 21
82.54839161626145
 31
0.0
  0
LINE
  5
CA
330
76
100
AcDbEntity
  8
0
  6
Continuous
 62
     7
100
AcDbLine
 10
-15.07596198694034
 20
85.8538879781665
 30
0.0
 11
-18.32596198694034
 21
83.03930541586708
 31
0.0
  0
LINE
  5
CB
330
76
100
AcDbEntity
  8
0
  6
Continuous
 62
     7
100
AcDbLine
 10
-18.32596198694034
 20
83.03930541586708
 30
0.0
 11
-19.17596198694059
 21
82.30318382265008
 31
0.0
  0
LINE
  5
CC
330
76
100
AcDbEntity
  8
0
  6
Continuous
 62
     7
100
AcDbLine
 10
-18.32596198694034
 20
80.44122920451376
 30
0.0
 11
-15.07596198694034
 21
83.25581176681318
 31
0.0
  0
LINE
  5
CD
330
76
100
AcDbEntity
  8
0
  6
Continuous
 62
     7
100
AcDbLine
 10
-19.17596198694059
 20
80.68660306891941
 30
0.0
 11
-18.32596198694034
 21
80.44122920451376
 31
0.0
  0
LINE
  5
CE
330
76
100
AcDbEntity
  8
0
  6
Continuous
 62
     7
100
AcDbLine
 10
-14.50717976958765
 20
79.79683556803076
 30
0.0
 11
-15.89282041564276
 21
80.19683556803076
 31
0.0
  0
LINE
  5
CF
330
76
100
AcDbEntity
  8
0
  6
Continuous
 62
     7
100
AcDbLine
 10
-14.50717976958765
 20
79.79683556803076
 30
0.0
 11
-14.5071797695877
 21
82.67619328155389
 31
0.0
  0
LINE
  5
D0
330
76
100
AcDbEntity
  8
0
  6
Continuous
 62
     7
100
AcDbLine
 10
-14.22596198694009
 20
86.59000957138349
 30
0.0
 11
-15.07596198694034
 21
85.8538879781665
 31
0.0
  0
LINE
  5
D1
330
76
100
AcDbEntity
  8
0
  6
Continuous
 62
     7
100
AcDbLine
 10
-12.31217976956609
 20
80.48276132942165
 30
0.0
 11
-11.90717976958768
 21
82.04850161787087
 31
0.0
  0
LINE
  5
D2
330
76
100
AcDbEntity
  8
0
  6
Continuous
 62
     7
100
AcDbLine
 10
-15.07596198694034
 20
83.25581176681318
 30
0.0
 11
-15.07596198694034
 21
85.8538879781665
 31
0.0
  0
LINE
  5
D3
330
76
100
AcDbEntity
  8
0
  6
Continuous
 62
     7
100
AcDbLine
 10
-14.22596198694009
 20
82.59501270029766
 30
0.0
 11
-14.22596198694009
 21
86.59000957138349
 31
0.0
  0
LINE
  5
D4
330
76
100
AcDbEntity
  8
0
  6
Continuous
 62
     7
100
AcDbLine
 10
-14.22596198694009
 20
86.59000957138349
 30
0.0
 11
-10.97596198694009
 21
89.40459213368291
 31
0.0
  0
LINE
  5
D5
330
76
100
AcDbEntity
  8
0
  6
Continuous
 62
     7
100
AcDbLine
 10
-16.00717976958755
 20
82.18466230155292
 30
0.0
 11
-16.0071797695876
 21
82.44935351058484
 31
0.0
  0
LINE
  5
D6
330
76
100
AcDbEntity
  8
0
  6
Continuous
 62
     7
100
AcDbLine
 10
-11.90717976958774
 20
82.35110455754204
 30
0.0
 11
-11.90717976958768
 21
82.04850161787087
 31
0.0
  0
LINE
  5
D7
330
76
100
AcDbEntity
  8
0
  6
Continuous
 62
     7
100
AcDbLine
 10
-16.00717976958755
 20
81.8623786697781
 30
0.0
 11
-16.17849395940902
 21
82.03629986113877
 31
0.0
  0
LINE
  5
D8
330
76
100
AcDbEntity
  8
0
  6
Continuous
 62
     7
100
AcDbLine
 10
-13.64843800052803
 20
82.42186365859547
 30
0.0
 11
-13.04222021787907
 21
82.24686365859552
 31
0.0
  0
LINE
  5
D9
330
76
100
AcDbEntity
  8
0
  6
Continuous
 62
     7
100
AcDbLine
 10
-13.90096198694091
 20
82.87647095652687
 30
0.0
 11
-14.22596198694009
 21
82.59501270029766
 31
0.0
  0
LINE
  5
DA
330
76
100
AcDbEntity
  8
0
  6
Continuous
 62
     7
100
AcDbLine
 10
-15.43573076533977
 20
82.94424286523078
 30
0.0
 11
-14.22596198694009
 21
82.59501270029766
 31
0.0
  0
LINE
  5
DB
330
76
100
AcDbEntity
  8
0
  6
Continuous
 62
     7
100
AcDbLine
 10
-22.33935944656215
 20
80.06981904299977
 30
0.0
 11
-10.88935944656165
 21
89.98580991633202
 31
0.0
  0
LINE
  5
DC
330
76
100
AcDbEntity
  8
0
  6
Continuous
 62
     7
100
AcDbLine
 10
-11.23935944656214
 20
96.29391695717477
 30
0.0
 11
-21.98935944656215
 21
86.98414386649205
 31
0.0
  0
LINE
  5
DD
330
76
100
AcDbEntity
  8
0
  6
Continuous
 62
     7
100
AcDbLine
 10
-12.31217976956609
 20
80.48276132942165
 30
0.0
 11
-12.31217976956617
 21
73.73601290242757
 31
0.0
  0
LINE
  5
DE
330
76
100
AcDbEntity
  8
0
  6
Continuous
 62
     7
100
AcDbLine
 10
-11.23935944656214
 20
96.29391695717477
 30
0.0
 11
-11.23935944656214
 21
94.52331864378188
 31
0.0
  0
LINE
  5
DF
330
76
100
AcDbEntity
  8
0
  6
Continuous
 62
     7
100
AcDbLine
 10
-10.97596198694009
 20
82.95270287548884
 30
0.0
 11
-10.97596198694009
 21
89.40459213368291
 31
0.0
  0
LINE
  5
E0
330
76
100
AcDbEntity
  8
0
  6
Continuous
 62
     7
100
AcDbLine
 10
-11.68760298850506
 20
95.42909599739329
 30
0.0
 11
-12.07130513681354
 21
95.57343085484808
 31
0.0
  0
LINE
  5
E1
330
76
100
AcDbEntity
  8
0
  6
Continuous
 62
     7
100
AcDbLine
 10
-16.60037231263962
 20
67.36760583015015
 30
0.0
 11
-16.41217976956613
 21
70.18530874691163
 31
0.0
  0
LINE
  5
E2
330
76
100
AcDbEntity
  8
0
  6
Continuous
 62
     7
100
AcDbLine
 10
-18.1871797695875
 20
68.6075369039758
 30
0.0
 11
-19.5728204156426
 21
69.00753690397579
 31
0.0
  0
LINE
  5
E3
330
76
100
AcDbEntity
  8
0
  6
Continuous
 62
     7
100
AcDbLine
 10
-18.00186370021298
 20
66.15387868544263
 30
0.0
 11
-19.38750434626808
 21
66.55387868544264
 31
0.0
  0
LINE
  5
E4
330
76
100
AcDbEntity
  8
0
  6
Continuous
 62
     7
100
AcDbLine
 10
-18.00186370021298
 20
66.15387868544263
 30
0.0
 11
-18.1871797695875
 21
68.6075369039758
 31
0.0
  0
LINE
  5
E5
330
76
100
AcDbEntity
  8
0
  6
Continuous
 62
     7
100
AcDbLine
 10
-18.1871797695875
 20
68.6075369039758
 30
0.0
 11
-18.18717976958745
 21
75.3498620821036
 31
0.0
  0
LINE
  5
E6
330
76
100
AcDbEntity
  8
0
  6
Continuous
 62
     7
100
AcDbLine
 10
-20.51217976956607
 20
66.6346045913956
 30
0.0
 11
-20.51217976956603
 21
73.3813530183884
 31
0.0
  0
LINE
  5
E7
330
76
100
AcDbEntity
  8
0
  6
Continuous
 62
     7
100
AcDbLine
 10
-22.28717976959273
 20
65.05683274846487
 30
0.0
 11
-22.28717976959271
 21
71.79915792659929
 31
0.0
  0
LINE
  5
E8
330
76
100
AcDbEntity
  8
0
  6
Continuous
 62
     7
100
AcDbLine
 10
-22.70717976958755
 20
72.69542725699883
 30
0.0
 11
-22.70717976959269
 21
73.11789258341413
 31
0.0
  0
LINE
  5
E9
330
76
100
AcDbEntity
  8
0
  6
Continuous
 62
     7
100
AcDbLine
 10
-19.57282041564256
 20
75.7498620821036
 30
0.0
 11
-18.18717976958745
 21
75.3498620821036
 31
0.0
  0
LINE
  5
EA
330
76
100
AcDbEntity
  8
0
  6
Continuous
 62
     7
100
AcDbLine
 10
-15.28750434626832
 20
70.10458284095877
 30
0.0
 11
-15.47282041564283
 21
72.55824105949192
 31
0.0
  0
LINE
  5
EB
330
76
100
AcDbEntity
  8
0
  6
Continuous
 62
     7
100
AcDbLine
 10
-22.70717976958755
 20
72.69542725699883
 30
0.0
 11
-22.28717976959271
 21
71.79915792659929
 31
0.0
  0
LINE
  5
EC
330
76
100
AcDbEntity
  8
0
  6
Continuous
 62
     7
100
AcDbLine
 10
-16.60037231263962
 20
67.36760583015015
 30
0.0
 11
-18.00186370021298
 21
66.15387868544263
 31
0.0
  0
LINE
  5
ED
330
76
100
AcDbEntity
  8
0
  6
Continuous
 62
     7
100
AcDbLine
 10
-20.51217976956603
 20
73.3813530183884
 30
0.0
 11
-20.10717976958757
 21
74.94709330683779
 31
0.0
  0
LINE
  5
EE
330
76
100
AcDbEntity
  8
0
  6
Continuous
 62
     7
100
AcDbLine
 10
-24.09282041564266
 20
73.09542725699883
 30
0.0
 11
-24.09282041564265
 21
73.51789258341265
 31
0.0
  0
LINE
  5
EF
330
76
100
AcDbEntity
  8
0
  6
Continuous
 62
     7
100
AcDbLine
 10
-22.42596198694059
 20
73.03671200215659
 30
0.0
 11
-25.02403819829391
 21
73.78671200215659
 31
0.0
  0
LINE
  5
F0
330
76
100
AcDbEntity
  8
0
  6
Continuous
 62
     7
100
AcDbLine
 10
-22.42596198694059
 20
73.03671200215659
 30
0.0
 11
-22.42596198694059
 21
79.48860126035066
 31
0.0
  0
LINE
  5
F1
330
76
100
AcDbEntity
  8
0
  6
Continuous
 62
     7
100
AcDbLine
 10
-20.10717976958756
 20
76.44730757169606
 30
0.0
 11
-20.10717976958757
 21
74.94709330683779
 31
0.0
  0
LINE
  5
F2
330
76
100
AcDbEntity
  8
0
  6
Continuous
 62
     7
100
AcDbLine
 10
-25.02403819829391
 20
73.78671200215659
 30
0.0
 11
-25.02403819829391
 21
80.23860126035066
 31
0.0
  0
LINE
  5
F3
330
76
100
AcDbEntity
  8
0
  6
Continuous
 62
     7
100
AcDbLine
 10
-18.60717976958755
 20
76.24613141251437
 30
0.0
 11
-19.99282041564265
 21
76.64613141251436
 31
0.0
  0
LINE
  5
F4
330
76
100
AcDbEntity
  8
0
  6
Continuous
 62
     7
100
AcDbLine
 10
-19.17596198694059
 20
78.30818695156424
 30
0.0
 11
-19.50096198693977
 21
78.02672869533501
 31
0.0
  0
LINE
  5
F5
330
76
100
AcDbEntity
  8
0
  6
Continuous
 62
     7
100
AcDbLine
 10
-18.60717976958754
 20
79.61071261993861
 30
0.0
 11
-18.60717976958755
 21
76.24613141251437
 31
0.0
  0
LINE
  5
F6
330
76
100
AcDbEntity
  8
0
  6
Continuous
 62
     7
100
AcDbLine
 10
-10.88935944656165
 20
89.98580991633202
 30
0.0
 11
-10.88935944656165
 21
97.60250334260343
 31
0.0
  0
LINE
  5
F7
330
76
100
AcDbEntity
  8
0
  6
Continuous
 62
     7
100
AcDbLine
 10
-10.88935944656165
 20
97.60250334260343
 30
0.0
 11
-13.66064073867186
 21
98.40250334260342
 31
0.0
  0
LINE
  5
F8
330
76
100
AcDbEntity
  8
0
  6
Continuous
 62
     7
100
AcDbLine
 10
-22.10186370020949
 20
62.60317452981629
 30
0.0
 11
-23.48750434626447
 21
63.00317452981454
 31
0.0
  0
LINE
  5
F9
330
76
100
AcDbEntity
  8
0
  6
Continuous
 62
     7
100
AcDbLine
 10
-19.5728204156426
 20
69.00753690397579
 30
0.0
 11
-19.38750434626808
 21
66.55387868544264
 31
0.0
  0
LINE
  5
FA
330
76
100
AcDbEntity
  8
0
  6
Continuous
 62
     7
100
AcDbLine
 10
-19.57282041564256
 20
75.7498620821036
 30
0.0
 11
-19.5728204156426
 21
69.00753690397579
 31
0.0
  0
LINE
  5
FB
330
76
100
AcDbEntity
  8
0
  6
Continuous
 62
     7
100
AcDbLine
 10
-24.09282041564266
 20
73.09542725699883
 30
0.0
 11
-23.67282041564781
 21
72.1991579265993
 31
0.0
  0
LINE
  5
FC
330
76
100
AcDbEntity
  8
0
  6
Continuous
 62
     7
100
AcDbLine
 10
-23.67282041564781
 20
72.1991579265993
 30
0.0
 11
-23.67282041564784
 21
65.45683274846488
 31
0.0
  0
LINE
  5
FD
330
76
100
AcDbEntity
  8
0
  6
Continuous
 62
     7
100
AcDbLine
 10
-23.67282041564781
 20
72.1991579265993
 30
0.0
 11
-22.28717976959271
 21
71.79915792659929
 31
0.0
  0
LINE
  5
FE
330
76
100
AcDbEntity
  8
0
  6
Continuous
 62
     7
100
AcDbLine
 10
-23.67282041564784
 20
65.45683274846488
 30
0.0
 11
-23.48750434626447
 21
63.00317452981454
 31
0.0
  0
LINE
  5
FF
330
76
100
AcDbEntity
  8
0
  6
Continuous
 62
     7
100
AcDbLine
 10
-20.70037231263125
 20
63.81690167475837
 30
0.0
 11
-20.51217976956607
 21
66.6346045913956
 31
0.0
  0
LINE
  5
100
330
76
100
AcDbEntity
  8
0
  6
Continuous
 62
     7
100
AcDbLine
 10
-22.10186370020949
 20
62.60317452981629
 30
0.0
 11
-22.28717976959273
 21
65.05683274846487
 31
0.0
  0
LINE
  5
101
330
76
100
AcDbEntity
  8
0
  6
Continuous
 62
     7
100
AcDbLine
 10
-22.42596198694059
 20
79.48860126035066
 30
0.0
 11
-19.17596198694059
 21
82.30318382265008
 31
0.0
  0
LINE
  5
102
330
76
100
AcDbEntity
  8
0
  6
Continuous
 62
     7
100
AcDbLine
 10
-19.17596198694059
 20
78.30818695156424
 30
0.0
 11
-19.17596198694059
 21
82.30318382265008
 31
0.0
  0
LINE
  5
103
330
76
100
AcDbEntity
  8
0
  6
Continuous
 62
     7
100
AcDbLine
 10
-22.70717976958755
 20
72.69542725699883
 30
0.0
 11
-24.09282041564266
 21
73.09542725699883
 31
0.0
  0
LINE
  5
104
330
76
100
AcDbEntity
  8
0
  6
Continuous
 62
     7
100
AcDbLine
 10
-22.28717976959273
 20
65.05683274846487
 30
0.0
 11
-23.67282041564784
 21
65.45683274846488
 31
0.0
  0
LINE
  5
105
330
76
100
AcDbEntity
  8
0
  6
Continuous
 62
     7
100
AcDbLine
 10
-22.10186370020949
 20
62.60317452981629
 30
0.0
 11
-20.70037231263125
 21
63.81690167475837
 31
0.0
  0
LINE
  5
106
330
76
100
AcDbEntity
  8
0
  6
Continuous
 62
     7
100
AcDbLine
 10
-18.18717976958745
 20
75.3498620821036
 30
0.0
 11
-18.60717976958755
 21
76.24613141251437
 31
0.0
  0
LINE
  5
107
330
76
100
AcDbEntity
  8
0
  6
Continuous
 62
     7
100
AcDbLine
 10
-14.08717976958772
 20
72.15824105949191
 30
0.0
 11
-15.47282041564283
 21
72.55824105949192
 31
0.0
  0
LINE
  5
108
330
76
100
AcDbEntity
  8
0
  6
Continuous
 62
     7
100
AcDbLine
 10
-13.90186370021321
 20
69.70458284095876
 30
0.0
 11
-15.28750434626832
 21
70.10458284095877
 31
0.0
  0
LINE
  5
109
330
76
100
AcDbEntity
  8
0
  6
Continuous
 62
     7
100
AcDbLine
 10
-14.08717976958772
 20
72.15824105949191
 30
0.0
 11
-13.90186370021321
 21
69.70458284095876
 31
0.0
  0
LINE
  5
10A
330
76
100
AcDbEntity
  8
0
  6
Continuous
 62
     7
100
AcDbLine
 10
-16.41217976956613
 20
70.18530874691163
 30
0.0
 11
-16.4121797695661
 21
76.93205717390573
 31
0.0
  0
LINE
  5
10B
330
76
100
AcDbEntity
  8
0
  6
Continuous
 62
     7
100
AcDbLine
 10
-16.00717976958769
 20
78.49779746235492
 30
0.0
 11
-16.4121797695661
 21
76.93205717390573
 31
0.0
  0
LINE
  5
10C
330
76
100
AcDbEntity
  8
0
  6
Continuous
 62
     7
100
AcDbLine
 10
-19.99282041564266
 20
76.71044471812385
 30
0.0
 11
-19.99282041564265
 21
76.64613141251436
 31
0.0
  0
LINE
  5
10D
330
76
100
AcDbEntity
  8
0
  6
Continuous
 62
     7
100
AcDbLine
 10
-25.11064073867236
 20
80.86981904299977
 30
0.0
 11
-25.02403819829391
 21
80.23860126035066
 31
0.0
  0
LINE
  5
10E
330
76
100
AcDbEntity
  8
0
  6
Continuous
 62
     7
100
AcDbLine
 10
-25.11064073867236
 20
88.48651246927118
 30
0.0
 11
-25.11064073867236
 21
80.86981904299977
 31
0.0
  0
LINE
  5
10F
330
76
100
AcDbEntity
  8
0
  6
Continuous
 62
     7
100
AcDbLine
 10
-22.33935944656215
 20
80.06981904299977
 30
0.0
 11
-22.33935944656215
 21
87.68651246927116
 31
0.0
  0
LINE
  5
110
330
76
100
AcDbEntity
  8
0
  6
Continuous
 62
     7
100
AcDbLine
 10
-21.98935944656215
 20
85.21354555309915
 30
0.0
 11
-21.98935944656215
 21
86.98414386649205
 31
0.0
  0
LINE
  5
111
330
76
100
AcDbEntity
  8
0
  6
Continuous
 62
     7
100
AcDbLine
 10
-22.42596198694059
 20
79.48860126035066
 30
0.0
 11
-22.33935944656215
 21
80.06981904299977
 31
0.0
  0
LINE
  5
112
330
76
100
AcDbEntity
  8
0
  6
Continuous
 62
     7
100
AcDbLine
 10
-19.57282041564256
 20
75.7498620821036
 30
0.0
 11
-19.99282041564265
 21
76.64613141251436
 31
0.0
  0
LINE
  5
113
330
76
100
AcDbEntity
  8
0
  6
Continuous
 62
     7
100
AcDbLine
 10
-25.11064073867236
 20
88.48651246927118
 30
0.0
 11
-22.33935944656215
 21
87.68651246927116
 31
0.0
  0
LINE
  5
114
330
76
100
AcDbEntity
  8
0
  6
Continuous
 62
     7
100
AcDbLine
 10
-25.11064073867236
 20
88.48651246927118
 30
0.0
 11
-13.66064073867186
 21
98.40250334260342
 31
0.0
  0
SPLINE
  5
115
330
76
100
AcDbEntity
  8
0
  6
Continuous
 62
     7
100
AcDbSpline
210
0.0
220
0.0
230
1.0
 70
  1064
 71
     3
 72
     9
 73
     5
 74
     3
 42
0.000000001
 43
0.0000000001
 44
0.00000001
 40
0.0
 40
0.0
 40
0.0
 40
0.0
 40
0.2797333461356053
 40
0.5514062646030498
 40
0.5514062646030498
 40
0.5514062646030498
 40
0.5514062646030498
 10
-14.1371670089894
 20
82.67191140693143
 30
0.0
 10
-14.06044572874176
 20
82.61800897914674
 30
0.0
 10
-13.90921385779556
 20
82.51175732219488
 30
0.0
 10
-13.73451202825417
 20
82.45153476378971
 30
0.0
 10
-13.64843800052803
 20
82.42186365859547
 30
0.0
 11
-14.1371670089894
 21
82.67191140693143
 31
0.0
 11
-13.90096287808426
 21
82.52205029120157
 31
0.0
 11
-13.64843800052803
 21
82.42186365859547
 31
0.0
  0
SPLINE
  5
116
330
76
100
AcDbEntity
  8
0
  6
Continuous
 62
     7
100
AcDbSpline
210
0.0
220
0.0
230
1.0
 70
  1064
 71
     3
 72
     9
 73
     5
 74
     3
 42
0.000000001
 43
0.0000000001
 44
0.00000001
 40
0.0
 40
0.0
 40
0.0
 40
0.0
 40
0.5647569625388863
 40
1.079200809014793
 40
1.079200809014793
 40
1.079200809014793
 40
1.079200809014793
 10
-13.90096198694091
 20
82.87647095652687
 30
0.0
 10
-13.77765665189554
 20
82.72992324189192
 30
0.0
 10
-13.54203100533285
 20
82.44988348278962
 30
0.0
 10
-13.20356395800542
 20
82.31240040810701
 30
0.0
 10
-13.04222021787907
 20
82.24686365859552
 30
0.0
 11
-13.90096198694091
 21
82.87647095652687
 31
0.0
 11
-13.50288247311403
 21
82.47586750016727
 31
0.0
 11
-13.04222021787907
 21
82.24686365859552
 31
0.0
  0
SPLINE
  5
117
330
76
100
AcDbEntity
  8
0
  6
Continuous
 62
     7
100
AcDbSpline
210
0.0
220
0.0
230
1.0
 70
  1064
 71
     3
 72
    11
 73
     7
 74
     5
 42
0.000000001
 43
0.0000000001
 44
0.00000001
 40
0.0
 40
0.0
 40
0.0
 40
0.0
 40
0.4792928483394966
 40
0.9998784002982517
 40
1.591521590806867
 40
2.269781285206253
 40
2.269781285206253
 40
2.269781285206253
 40
2.269781285206253
 10
-13.04222021787907
 20
82.24686365859552
 30
0.0
 10
-12.8835062678076
 20
82.21833172685241
 30
0.0
 10
-12.55240462136747
 20
82.15880975543023
 30
0.0
 10
-12.02458225536355
 20
82.2839536076922
 30
0.0
 10
-11.48411890879009
 20
82.54486020116309
 30
0.0
 10
-11.1528786143005
 20
82.81071100152637
 30
0.0
 10
-10.97596198694009
 20
82.95270287548884
 30
0.0
 11
-13.04222021787907
 21
82.24686365859552
 31
0.0
 11
-12.5659624648582
 21
82.19301024925558
 31
0.0
 11
-12.0554079408045
 21
82.2947127508161
 31
0.0
 11
-11.52156941907645
 21
82.54977764576267
 31
0.0
 11
-10.97596198694009
 21
82.95270287548884
 31
0.0
  0
SPLINE
  5
118
330
76
100
AcDbEntity
  8
0
  6
Continuous
 62
     7
100
AcDbSpline
210
0.0
220
0.0
230
1.0
 70
  1064
 71
     3
 72
    11
 73
     7
 74
     5
 42
0.000000001
 43
0.0000000001
 44
0.00000001
 40
0.0
 40
0.0
 40
0.0
 40
0.0
 40
1.653236342388746
 40
3.215049537691239
 40
4.626310992511032
 40
5.842909639589177
 40
5.842909639589177
 40
5.842909639589177
 40
5.842909639589177
 10
-19.50096198693977
 20
78.02672869533501
 30
0.0
 10
-19.68623277941308
 20
77.50701752433608
 30
0.0
 10
-20.0465289954196
 20
76.49633495694081
 30
0.0
 10
-20.75405225320544
 20
75.12348668248931
 30
0.0
 10
-21.51471449351772
 20
73.94234352624025
 30
0.0
 10
-22.13759305027606
 20
73.3233037296337
 30
0.0
 10
-22.42596198694059
 20
73.03671200215659
 30
0.0
 11
-19.50096198693977
 21
78.02672869533501
 31
0.0
 11
-20.09151818865113
 21
76.48256750783672
 31
0.0
 11
-20.80055959568879
 21
75.09097822061095
 31
0.0
 11
-21.59209935112694
 21
73.92259313169266
 31
0.0
 11
-22.42596198694059
 21
73.03671200215659
 31
0.0
  0
ENDBLK
  5
78
330
76
100
AcDbEntity
  8
0
100
AcDbBlockEnd
  0
BLOCK
  5
7B
330
79
100
AcDbEntity
  8
0
100
AcDbBlockBegin
  2
Gen1
 70
     0
 10
-18.00000000003999
 20
80.00000000004002
 30
0.0
  3
Gen1
  1

  0
INSERT
  5
7A
330
79
100
AcDbEntity
  8
0
100
AcDbBlockReference
  2
FBS_3_8_select__1
 10
-25.11064073867236
 20
62.60317452981629
 30
0.0
  0
MTEXT
  5
11A
330
79
100
AcDbEntity
  8
1
 62
     6
100
AcDbMText
 10
-18.0000000000399
 20
56.59749684436906
 30
0.0
 40
5.0
 41
0.0
 71
     2
 72
     1
  1
 
  7
CONVERTER_11
 73
     1
 44
1.32052821128451
  0
ENDBLK
  5
7C
330
79
100
AcDbEntity
  8
0
100
AcDbBlockEnd
  0
BLOCK
  5
7E
330
7D
100
AcDbEntity
  8
0
100
AcDbBlockBegin
  2
FBS_3_8_select__2
 70
     0
 10
-18.70000062980175
 20
129.9375004058458
 30
0.0
  3
FBS_3_8_select__2
  1

  0
LINE
  5
11B
330
7D
100
AcDbEntity
  8
0
  6
Continuous
 62
     7
100
AcDbLine
 10
-17.90000062980192
 20
143.1175004059568
 30
0.0
 11
-17.90000062980192
 21
142.1963461327645
 31
0.0
  0
LINE
  5
11C
330
7D
100
AcDbEntity
  8
0
  6
Continuous
 62
     7
100
AcDbLine
 10
-17.90000062980192
 20
140.7933849787085
 30
0.0
 11
-17.90000062980192
 21
142.1963461327645
 31
0.0
  0
LINE
  5
11D
330
7D
100
AcDbEntity
  8
0
  6
Continuous
 62
     7
100
AcDbLine
 10
-17.90000062980192
 20
133.0029109377491
 30
0.0
 11
-17.90000062980192
 21
129.9375004058458
 31
0.0
  0
LINE
  5
11E
330
7D
100
AcDbEntity
  8
0
  6
Continuous
 62
     7
100
AcDbLine
 10
-17.90000062980192
 20
140.7933849787085
 30
0.0
 11
-17.90000062980192
 21
133.0029109377491
 31
0.0
  0
LINE
  5
11F
330
7D
100
AcDbEntity
  8
0
  6
Continuous
 62
     7
100
AcDbLine
 10
-15.50000062980175
 20
160.0625004059421
 30
0.0
 11
-15.50000062980175
 21
151.2675004059568
 31
0.0
  0
LINE
  5
120
330
7D
100
AcDbEntity
  8
0
  6
Continuous
 62
     7
100
AcDbLine
 10
-18.70000062980175
 20
151.2675004059568
 30
0.0
 11
-18.70000062980175
 21
160.0625004059421
 31
0.0
  0
LINE
  5
121
330
7D
100
AcDbEntity
  8
0
  6
Continuous
 62
     7
100
AcDbLine
 10
-18.70000062980175
 20
160.0625004059421
 30
0.0
 11
-15.50000062980175
 21
160.0625004059421
 31
0.0
  0
LINE
  5
122
330
7D
100
AcDbEntity
  8
0
  6
Continuous
 62
     7
100
AcDbLine
 10
-18.60000062980175
 20
143.1175004059568
 30
0.0
 11
-18.60000062980175
 21
150.5675004059569
 31
0.0
  0
LINE
  5
123
330
7D
100
AcDbEntity
  8
0
  6
Continuous
 62
     7
100
AcDbLine
 10
-15.60000062980175
 20
143.1175004059568
 30
0.0
 11
-15.60000062980175
 21
150.5675004059569
 31
0.0
  0
LINE
  5
124
330
7D
100
AcDbEntity
  8
0
  6
Continuous
 62
     7
100
AcDbLine
 10
-15.50000062980175
 20
151.2675004059568
 30
0.0
 11
-15.60000062980175
 21
150.5675004059569
 31
0.0
  0
LINE
  5
125
330
7D
100
AcDbEntity
  8
0
  6
Continuous
 62
     7
100
AcDbLine
 10
-16.30000062980191
 20
142.1963461327642
 30
0.0
 11
-17.90000062980192
 21
142.1963461327645
 31
0.0
  0
LINE
  5
126
330
7D
100
AcDbEntity
  8
0
  6
Continuous
 62
     7
100
AcDbLine
 10
-17.90000062980192
 20
140.7933849787085
 30
0.0
 11
-16.30000062980191
 21
140.7933849787085
 31
0.0
  0
LINE
  5
127
330
7D
100
AcDbEntity
  8
0
  6
Continuous
 62
     7
100
AcDbLine
 10
-16.30000062980191
 20
143.1175004059568
 30
0.0
 11
-18.60000062980175
 21
143.1175004059568
 31
0.0
  0
LINE
  5
128
330
7D
100
AcDbEntity
  8
0
  6
Continuous
 62
     7
100
AcDbLine
 10
-16.30000062980191
 20
129.9375004058458
 30
0.0
 11
-17.90000062980192
 21
129.9375004058458
 31
0.0
  0
LINE
  5
129
330
7D
100
AcDbEntity
  8
0
  6
Continuous
 62
     7
100
AcDbLine
 10
-15.60000062980175
 20
143.1175004059568
 30
0.0
 11
-16.30000062980191
 21
143.1175004059568
 31
0.0
  0
LINE
  5
12A
330
7D
100
AcDbEntity
  8
0
  6
Continuous
 62
     7
100
AcDbLine
 10
-16.30000062980191
 20
143.1175004059568
 30
0.0
 11
-16.30000062980191
 21
142.1963461327642
 31
0.0
  0
LINE
  5
12B
330
7D
100
AcDbEntity
  8
0
  6
Continuous
 62
     7
100
AcDbLine
 10
-16.30000062980191
 20
142.1963461327642
 30
0.0
 11
-16.30000062980191
 21
140.7933849787085
 31
0.0
  0
LINE
  5
12C
330
7D
100
AcDbEntity
  8
0
  6
Continuous
 62
     7
100
AcDbLine
 10
-16.30000062980191
 20
129.9375004058458
 30
0.0
 11
-16.30000062980191
 21
133.0029109377491
 31
0.0
  0
LINE
  5
12D
330
7D
100
AcDbEntity
  8
0
  6
Continuous
 62
     7
100
AcDbLine
 10
-16.30000062980191
 20
133.0029109377491
 30
0.0
 11
-16.30000062980191
 21
140.7933849787085
 31
0.0
  0
LINE
  5
12E
330
7D
100
AcDbEntity
  8
0
  6
Continuous
 62
     7
100
AcDbLine
 10
-16.30000062980191
 20
133.0029109377491
 30
0.0
 11
-17.90000062980192
 21
133.0029109377491
 31
0.0
  0
LINE
  5
12F
330
7D
100
AcDbEntity
  8
0
  6
Continuous
 62
     7
100
AcDbLine
 10
-18.60000062980175
 20
150.5675004059569
 30
0.0
 11
-18.70000062980175
 21
151.2675004059568
 31
0.0
  0
ENDBLK
  5
7F
330
7D
100
AcDbEntity
  8
0
100
AcDbBlockEnd
  0
BLOCK
  5
82
330
80
100
AcDbEntity
  8
0
100
AcDbBlockBegin
  2
Back1
 70
     0
 10
-17.1000006198484
 20
145.00000000004
 30
0.0
  3
Back1
  1

  0
INSERT
  5
81
330
80
100
AcDbEntity
  8
0
100
AcDbBlockReference
  2
FBS_3_8_select__2
 10
-18.70000062980175
 20
129.9375004058458
 30
0.0
  0
MTEXT
  5
130
330
80
100
AcDbEntity
  8
1
 62
     6
100
AcDbMText
 10
-17.1000006198484
 20
124.9374997616214
 30
0.0
 40
5.0
 41
0.0
 71
     2
 72
     1
  1
 
  7
CONVERTER_11
 73
     1
 44
1.32052821128451
  0
ENDBLK
  5
83
330
80
100
AcDbEntity
  8
0
100
AcDbBlockEnd
  0
BLOCK
  5
85
330
84
100
AcDbEntity
  8
0
100
AcDbBlockBegin
  2
FBS_3_8_select__3
 70
     0
 10
-134.5999999900867
 20
129.93750040598
 30
0.0
  3
FBS_3_8_select__3
  1

  0
LINE
  5
131
330
84
100
AcDbEntity
  8
0
  6
Continuous
 62
     7
100
AcDbLine
 10
-131.3999999900867
 20
151.267500405957
 30
0.0
 11
-131.3999999900867
 21
160.0625004059423
 31
0.0
  0
LINE
  5
132
330
84
100
AcDbEntity
  8
0
  6
Continuous
 62
     7
100
AcDbLine
 10
-134.5999999900867
 20
160.0625004059423
 30
0.0
 11
-134.5999999900867
 21
151.267500405957
 31
0.0
  0
LINE
  5
133
330
84
100
AcDbEntity
  8
0
  6
Continuous
 62
     7
100
AcDbLine
 10
-134.5999999900867
 20
160.0625004059423
 30
0.0
 11
-131.3999999900867
 21
160.0625004059423
 31
0.0
  0
LINE
  5
134
330
84
100
AcDbEntity
  8
0
  6
Continuous
 62
     7
100
AcDbLine
 10
-131.4999999900867
 20
150.567500405957
 30
0.0
 11
-131.3999999900867
 21
151.267500405957
 31
0.0
  0
LINE
  5
135
330
84
100
AcDbEntity
  8
0
  6
Continuous
 62
     7
100
AcDbLine
 10
-131.4999999900867
 20
143.117500405957
 30
0.0
 11
-131.4999999900867
 21
150.567500405957
 31
0.0
  0
LINE
  5
136
330
84
100
AcDbEntity
  8
0
  6
Continuous
 62
     7
100
AcDbLine
 10
-132.1999999900865
 20
140.7414234544054
 30
0.0
 11
-132.1999999900865
 21
142.1963461327636
 31
0.0
  0
LINE
  5
137
330
84
100
AcDbEntity
  8
0
  6
Continuous
 62
     7
100
AcDbLine
 10
-132.1999999900865
 20
132.9560569412934
 30
0.0
 11
-132.1999999900865
 21
129.93750040598
 31
0.0
  0
LINE
  5
138
330
84
100
AcDbEntity
  8
0
  6
Continuous
 62
     7
100
AcDbLine
 10
-132.1999999900865
 20
140.7414234544054
 30
0.0
 11
-132.1999999900865
 21
132.9560569412934
 31
0.0
  0
LINE
  5
139
330
84
100
AcDbEntity
  8
0
  6
Continuous
 62
     7
100
AcDbLine
 10
-133.7999999900865
 20
140.7414234544054
 30
0.0
 11
-133.7999999900865
 21
142.1963461327636
 31
0.0
  0
LINE
  5
13A
330
84
100
AcDbEntity
  8
0
  6
Continuous
 62
     7
100
AcDbLine
 10
-132.1999999900865
 20
129.93750040598
 30
0.0
 11
-133.7999999900865
 21
129.93750040598
 31
0.0
  0
LINE
  5
13B
330
84
100
AcDbEntity
  8
0
  6
Continuous
 62
     7
100
AcDbLine
 10
-133.7999999900865
 20
140.7414234544054
 30
0.0
 11
-132.1999999900865
 21
140.7414234544054
 31
0.0
  0
LINE
  5
13C
330
84
100
AcDbEntity
  8
0
  6
Continuous
 62
     7
100
AcDbLine
 10
-132.1999999900865
 20
132.9560569412934
 30
0.0
 11
-133.7999999900865
 21
132.9560569412934
 31
0.0
  0
LINE
  5
13D
330
84
100
AcDbEntity
  8
0
  6
Continuous
 62
     7
100
AcDbLine
 10
-134.4999999900867
 20
150.5675004059569
 30
0.0
 11
-134.4999999900867
 21
143.117500405957
 31
0.0
  0
LINE
  5
13E
330
84
100
AcDbEntity
  8
0
  6
Continuous
 62
     7
100
AcDbLine
 10
-132.1999999900865
 20
142.1963461327636
 30
0.0
 11
-132.1999999900865
 21
143.117500405957
 31
0.0
  0
LINE
  5
13F
330
84
100
AcDbEntity
  8
0
  6
Continuous
 62
     7
100
AcDbLine
 10
-133.7999999900865
 20
142.1963461327636
 30
0.0
 11
-133.7999999900865
 21
143.117500405957
 31
0.0
  0
LINE
  5
140
330
84
100
AcDbEntity
  8
0
  6
Continuous
 62
     7
100
AcDbLine
 10
-132.1999999900865
 20
143.117500405957
 30
0.0
 11
-131.4999999900867
 21
143.117500405957
 31
0.0
  0
LINE
  5
141
330
84
100
AcDbEntity
  8
0
  6
Continuous
 62
     7
100
AcDbLine
 10
-133.7999999900865
 20
143.117500405957
 30
0.0
 11
-132.1999999900865
 21
143.117500405957
 31
0.0
  0
LINE
  5
142
330
84
100
AcDbEntity
  8
0
  6
Continuous
 62
     7
100
AcDbLine
 10
-134.4999999900867
 20
143.117500405957
 30
0.0
 11
-133.7999999900865
 21
143.117500405957
 31
0.0
  0
LINE
  5
143
330
84
100
AcDbEntity
  8
0
  6
Continuous
 62
     7
100
AcDbLine
 10
-132.1999999900865
 20
142.1963461327636
 30
0.0
 11
-133.7999999900865
 21
142.1963461327636
 31
0.0
  0
LINE
  5
144
330
84
100
AcDbEntity
  8
0
  6
Continuous
 62
     7
100
AcDbLine
 10
-133.7999999900865
 20
129.93750040598
 30
0.0
 11
-133.7999999900865
 21
132.9560569412934
 31
0.0
  0
LINE
  5
145
330
84
100
AcDbEntity
  8
0
  6
Continuous
 62
     7
100
AcDbLine
 10
-133.7999999900865
 20
132.9560569412934
 30
0.0
 11
-133.7999999900865
 21
140.7414234544054
 31
0.0
  0
LINE
  5
146
330
84
100
AcDbEntity
  8
0
  6
Continuous
 62
     7
100
AcDbLine
 10
-134.5999999900867
 20
151.267500405957
 30
0.0
 11
-134.4999999900867
 21
150.5675004059569
 31
0.0
  0
ENDBLK
  5
86
330
84
100
AcDbEntity
  8
0
100
AcDbBlockEnd
  0
BLOCK
  5
89
330
87
100
AcDbEntity
  8
0
100
AcDbBlockBegin
  2
Front1
 70
     0
 10
-133.00000000004
 20
145.0000000000401
 30
0.0
  3
Front1
  1

  0
INSERT
  5
88
330
87
100
AcDbEntity
  8
0
100
AcDbBlockReference
  2
FBS_3_8_select__3
 10
-134.5999999900867
 20
129.93750040598
 30
0.0
  0
MTEXT
  5
147
330
87
100
AcDbEntity
  8
1
 62
     6
100
AcDbMText
 10
-133.00000000004
 20
124.9374997616214
 30
0.0
 40
5.0
 41
0.0
 71
     2
 72
     1
  1
 
  7
CONVERTER_11
 73
     1
 44
1.32052821128451
  0
DIMENSION
  5
154
330
87
100
AcDbEntity
  8
1
100
AcDbDimension
  2
*D17
 10
-134.5999999900867
 20
168.550968006399
 30
0.0
 11
-124.317800456988
 21
172.475968006399
 31
0.0
 70
    32
  1
<>
 71
     5
 42
-1.0
 53
0.00013888888889
  3
ME10_DIM_10
100
AcDbAlignedDimension
 13
-131.3999999900867
 23
160.0625004059423
 33
0.0
 14
-134.5999999900867
 24
160.0625004059423
 34
0.0
100
AcDbRotatedDimension
  0
DIMENSION
  5
161
330
87
100
AcDbEntity
  8
1
100
AcDbDimension
  2
*D18
 10
-133.7999999900865
 20
121.595785757899
 30
0.0
 11
-125.159351845854
 21
125.520785757899
 31
0.0
 70
    33
  1
<>
 71
     5
 42
-1.0
 53
0.00013888888889
  3
ME10_DIM_11
100
AcDbAlignedDimension
 13
-132.1999999900865
 23
129.93750040598
 33
0.0
 14
-133.7999999900865
 24
129.93750040598
 34
0.0
  0
DIMENSION
  5
16C
330
87
100
AcDbEntity
  8
1
100
AcDbDimension
  2
*D19
 10
-143.750219381801
 20
160.0625004059422
 30
0.0
 11
-147.675219381801
 21
147.771727248512
 31
0.0
 70
    32
  1
<>
 71
     5
 42
-1.0
 53
90.0
  3
ME10_DIM_12
100
AcDbAlignedDimension
 13
-133.7999999900865
 23
129.93750040598
 33
0.0
 14
-134.5999999900867
 24
160.0625004059423
 34
0.0
 50
90.0
100
AcDbRotatedDimension
  0
ENDBLK
  5
8A
330
87
100
AcDbEntity
  8
0
100
AcDbBlockEnd
  0
BLOCK
  5
8C
330
8B
100
AcDbEntity
  8
0
100
AcDbBlockBegin
  2
FBS_3_8_select__4
 70
     0
 10
-87.00000010754093
 20
129.9375004058456
 30
0.0
  3
FBS_3_8_select__4
  1

  0
LINE
  5
16D
330
8B
100
AcDbEntity
  8
0
  6
Continuous
 62
     7
100
AcDbLine
 10
-73.79000010754405
 20
132.9560569412931
 30
0.0
 11
-74.16063224629309
 21
129.9375004059797
 31
0.0
  0
LINE
  5
16E
330
8B
100
AcDbEntity
  8
0
  6
Continuous
 62
     7
100
AcDbLine
 10
-82.36063224629261
 20
129.9375004059799
 30
0.0
 11
-81.99000010754358
 21
132.9560569412933
 31
0.0
  0
LINE
  5
16F
330
8B
100
AcDbEntity
  8
0
  6
Continuous
 62
     7
100
AcDbLine
 10
-69.1400001075869
 20
133.0029109377495
 30
0.0
 11
-68.76361502145653
 21
129.9375004059809
 31
0.0
  0
LINE
  5
170
330
8B
100
AcDbEntity
  8
0
  6
Continuous
 62
     7
100
AcDbLine
 10
-65.5900001075336
 20
132.9560569413045
 30
0.0
 11
-65.96063224630035
 21
129.9375004058469
 31
0.0
  0
LINE
  5
171
330
8B
100
AcDbEntity
  8
0
  6
Continuous
 62
     7
100
AcDbLine
 10
-77.34000010758677
 20
133.0029109377494
 30
0.0
 11
-76.96361502143981
 21
129.9375004058456
 31
0.0
  0
LINE
  5
172
330
8B
100
AcDbEntity
  8
0
  6
Continuous
 62
     7
100
AcDbLine
 10
-64.10000010753993
 20
160.0625004059422
 30
0.0
 11
-64.10000010753993
 21
151.2675004059569
 31
0.0
  0
LINE
  5
173
330
8B
100
AcDbEntity
  8
0
  6
Continuous
 62
     7
100
AcDbLine
 10
-86.30000010753994
 20
157.7534512603301
 30
0.0
 11
-64.80000010753992
 21
157.7534512603301
 31
0.0
  0
LINE
  5
174
330
8B
100
AcDbEntity
  8
0
  6
Continuous
 62
     7
100
AcDbLine
 10
-64.80000010753992
 20
157.795656923786
 30
0.0
 11
-86.30000010753994
 21
157.795656923786
 31
0.0
  0
LINE
  5
175
330
8B
100
AcDbEntity
  8
0
  6
Continuous
 62
     7
100
AcDbLine
 10
-86.30000010753994
 20
157.795656923786
 30
0.0
 11
-86.30000010753994
 21
157.7534512603301
 31
0.0
  0
LINE
  5
176
330
8B
100
AcDbEntity
  8
0
  6
Continuous
 62
     7
100
AcDbLine
 10
-86.30000010753994
 20
158.6335258097413
 30
0.0
 11
-86.30000010753994
 21
157.795656923786
 31
0.0
  0
LINE
  5
177
330
8B
100
AcDbEntity
  8
0
  6
Continuous
 62
     7
100
AcDbLine
 10
-86.30000010753994
 20
158.9014750021724
 30
0.0
 11
-86.30000010753994
 21
158.6335258097413
 31
0.0
  0
LINE
  5
178
330
8B
100
AcDbEntity
  8
0
  6
Continuous
 62
     7
100
AcDbLine
 10
-86.30000010753994
 20
157.7534512603301
 30
0.0
 11
-86.30000010753994
 21
156.8569641764105
 31
0.0
  0
LINE
  5
179
330
8B
100
AcDbEntity
  8
0
  6
Continuous
 62
     7
100
AcDbLine
 10
-64.80000010753992
 20
157.7534512603301
 30
0.0
 11
-64.80000010753992
 21
157.795656923786
 31
0.0
  0
LINE
  5
17A
330
8B
100
AcDbEntity
  8
0
  6
Continuous
 62
     7
100
AcDbLine
 10
-64.80000010753992
 20
157.795656923786
 30
0.0
 11
-64.80000010753992
 21
158.6335258097413
 31
0.0
  0
LINE
  5
17B
330
8B
100
AcDbEntity
  8
0
  6
Continuous
 62
     7
100
AcDbLine
 10
-64.80000010753992
 20
158.6335258097413
 30
0.0
 11
-64.80000010753992
 21
158.9014750021724
 31
0.0
  0
LINE
  5
17C
330
8B
100
AcDbEntity
  8
0
  6
Continuous
 62
     7
100
AcDbLine
 10
-64.80000010753992
 20
156.8569641764105
 30
0.0
 11
-64.80000010753992
 21
157.7534512603301
 31
0.0
  0
LINE
  5
17D
330
8B
100
AcDbEntity
  8
0
  6
Continuous
 62
     7
100
AcDbLine
 10
-64.80000010753992
 20
158.9014750021724
 30
0.0
 11
-86.30000010753994
 21
158.9014750021724
 31
0.0
  0
LINE
  5
17E
330
8B
100
AcDbEntity
  8
0
  6
Continuous
 62
     7
100
AcDbLine
 10
-86.30000010753994
 20
156.8569641764105
 30
0.0
 11
-64.80000010753992
 21
156.8569641764105
 31
0.0
  0
LINE
  5
17F
330
8B
100
AcDbEntity
  8
0
  6
Continuous
 62
     7
100
AcDbLine
 10
-87.00000010754093
 20
151.2675004059569
 30
0.0
 11
-64.10000010753993
 21
151.2675004059569
 31
0.0
  0
LINE
  5
180
330
8B
100
AcDbEntity
  8
0
  6
Continuous
 62
     7
100
AcDbLine
 10
-64.10000010753993
 20
160.0625004059422
 30
0.0
 11
-87.00000010754093
 21
160.0625004059422
 31
0.0
  0
LINE
  5
181
330
8B
100
AcDbEntity
  8
0
  6
Continuous
 62
     7
100
AcDbLine
 10
-64.80000010753992
 20
158.6335258097413
 30
0.0
 11
-86.30000010753994
 21
158.6335258097413
 31
0.0
  0
LINE
  5
182
330
8B
100
AcDbEntity
  8
0
  6
Continuous
 62
     7
100
AcDbLine
 10
-87.00000010754093
 20
151.2675004059569
 30
0.0
 11
-87.00000010754093
 21
150.5675004059569
 31
0.0
  0
LINE
  5
183
330
8B
100
AcDbEntity
  8
0
  6
Continuous
 62
     7
100
AcDbLine
 10
-87.00000010754093
 20
160.0625004059422
 30
0.0
 11
-87.00000010754093
 21
151.2675004059569
 31
0.0
  0
LINE
  5
184
330
8B
100
AcDbEntity
  8
0
  6
Continuous
 62
     7
100
AcDbLine
 10
-87.00000010754093
 20
143.1175004059569
 30
0.0
 11
-87.00000010754093
 21
150.5675004059569
 31
0.0
  0
LINE
  5
185
330
8B
100
AcDbEntity
  8
0
  6
Continuous
 62
     7
100
AcDbLine
 10
-86.35000010754368
 20
143.1459102798448
 30
0.0
 11
-86.35000010754368
 21
142.1963461327642
 31
0.0
  0
LINE
  5
186
330
8B
100
AcDbEntity
  8
0
  6
Continuous
 62
     7
100
AcDbLine
 10
-85.16361502143974
 20
129.9375004058458
 30
0.0
 11
-85.54000010758669
 21
133.0029109377492
 31
0.0
  0
LINE
  5
187
330
8B
100
AcDbEntity
  8
0
  6
Continuous
 62
     7
100
AcDbLine
 10
-73.79000010754413
 20
140.7414234544053
 30
0.0
 11
-73.79000010754405
 21
132.9560569412931
 31
0.0
  0
LINE
  5
188
330
8B
100
AcDbEntity
  8
0
  6
Continuous
 62
     7
100
AcDbLine
 10
-85.16361502143974
 20
129.9375004058458
 30
0.0
 11
-82.36063224629261
 21
129.9375004059799
 31
0.0
  0
LINE
  5
189
330
8B
100
AcDbEntity
  8
0
  6
Continuous
 62
     7
100
AcDbLine
 10
-68.76361502145653
 20
129.9375004059809
 30
0.0
 11
-65.96063224630035
 21
129.9375004058469
 31
0.0
  0
LINE
  5
18A
330
8B
100
AcDbEntity
  8
0
  6
Continuous
 62
     7
100
AcDbLine
 10
-74.16063224629309
 20
129.9375004059797
 30
0.0
 11
-76.96361502143981
 21
129.9375004058456
 31
0.0
  0
LINE
  5
18B
330
8B
100
AcDbEntity
  8
0
  6
Continuous
 62
     7
100
AcDbLine
 10
-72.95000010754397
 20
146.0814298643969
 30
0.0
 11
-72.9500001075439
 21
142.1963461327636
 31
0.0
  0
LINE
  5
18C
330
8B
100
AcDbEntity
  8
0
  6
Continuous
 62
     7
100
AcDbLine
 10
-81.15000010754372
 20
142.1963461327638
 30
0.0
 11
-81.15000010754375
 21
145.9544753680906
 31
0.0
  0
LINE
  5
18D
330
8B
100
AcDbEntity
  8
0
  6
Continuous
 62
     7
100
AcDbLine
 10
-80.50000010754093
 20
150.5675004059569
 30
0.0
 11
-87.00000010754093
 21
150.5675004059569
 31
0.0
  0
LINE
  5
18E
330
8B
100
AcDbEntity
  8
0
  6
Continuous
 62
     7
100
AcDbLine
 10
-78.15000010754389
 20
142.1963461327651
 30
0.0
 11
-78.15000010754395
 21
146.0814298643969
 31
0.0
  0
LINE
  5
18F
330
8B
100
AcDbEntity
  8
0
  6
Continuous
 62
     7
100
AcDbLine
 10
-81.99000010754358
 20
132.9560569412933
 30
0.0
 11
-81.99000010754366
 21
140.741423454406
 31
0.0
  0
LINE
  5
190
330
8B
100
AcDbEntity
  8
0
  6
Continuous
 62
     7
100
AcDbLine
 10
-80.50000010754093
 20
145.9544753680906
 30
0.0
 11
-80.50000010754093
 21
150.5675004059569
 31
0.0
  0
LINE
  5
191
330
8B
100
AcDbEntity
  8
0
  6
Continuous
 62
     7
100
AcDbLine
 10
-77.34000010758686
 20
140.7933849787088
 30
0.0
 11
-77.34000010758677
 21
133.0029109377494
 31
0.0
  0
LINE
  5
192
330
8B
100
AcDbEntity
  8
0
  6
Continuous
 62
     7
100
AcDbLine
 10
-64.10000010753993
 20
151.2675004059569
 30
0.0
 11
-64.10000010753993
 21
150.5675004059569
 31
0.0
  0
LINE
  5
193
330
8B
100
AcDbEntity
  8
0
  6
Continuous
 62
     7
100
AcDbLine
 10
-70.60000010753993
 20
145.9544753680906
 30
0.0
 11
-70.60000010753993
 21
150.5675004059569
 31
0.0
  0
LINE
  5
194
330
8B
100
AcDbEntity
  8
0
  6
Continuous
 62
     7
100
AcDbLine
 10
-72.30000010754043
 20
147.5675004059569
 30
0.0
 11
-72.30000010754043
 21
150.5675004059569
 31
0.0
  0
LINE
  5
195
330
8B
100
AcDbEntity
  8
0
  6
Continuous
 62
     7
100
AcDbLine
 10
-70.60000010753993
 20
150.5675004059569
 30
0.0
 11
-72.30000010754043
 21
150.5675004059569
 31
0.0
  0
LINE
  5
196
330
8B
100
AcDbEntity
  8
0
  6
Continuous
 62
     7
100
AcDbLine
 10
-72.30000010754043
 20
147.5675004059569
 30
0.0
 11
-72.95000010754399
 21
147.5675004059569
 31
0.0
  0
LINE
  5
197
330
8B
100
AcDbEntity
  8
0
  6
Continuous
 62
     7
100
AcDbLine
 10
-72.95000010754399
 20
147.5675004059569
 30
0.0
 11
-72.95000010754399
 21
146.4535709475181
 31
0.0
  0
LINE
  5
198
330
8B
100
AcDbEntity
  8
0
  6
Continuous
 62
     7
100
AcDbLine
 10
-72.95000010754397
 20
146.2675004059575
 30
0.0
 11
-72.95000010754399
 21
146.4535709475181
 31
0.0
  0
LINE
  5
199
330
8B
100
AcDbEntity
  8
0
  6
Continuous
 62
     7
100
AcDbLine
 10
-78.15000010754395
 20
146.4535709475181
 30
0.0
 11
-78.15000010754395
 21
146.2675004059575
 31
0.0
  0
LINE
  5
19A
330
8B
100
AcDbEntity
  8
0
  6
Continuous
 62
     7
100
AcDbLine
 10
-78.15000010754395
 20
146.4535709475181
 30
0.0
 11
-78.15000010754395
 21
147.5675004059569
 31
0.0
  0
LINE
  5
19B
330
8B
100
AcDbEntity
  8
0
  6
Continuous
 62
     7
100
AcDbLine
 10
-78.15000010754395
 20
147.5675004059569
 30
0.0
 11
-78.80000010754043
 21
147.5675004059569
 31
0.0
  0
LINE
  5
19C
330
8B
100
AcDbEntity
  8
0
  6
Continuous
 62
     7
100
AcDbLine
 10
-78.80000010754043
 20
150.5675004059569
 30
0.0
 11
-80.50000010754093
 21
150.5675004059569
 31
0.0
  0
LINE
  5
19D
330
8B
100
AcDbEntity
  8
0
  6
Continuous
 62
     7
100
AcDbLine
 10
-78.15000010754395
 20
146.2675004059575
 30
0.0
 11
-78.15000010754395
 21
146.0814298643969
 31
0.0
  0
LINE
  5
19E
330
8B
100
AcDbEntity
  8
0
  6
Continuous
 62
     7
100
AcDbLine
 10
-72.95000010754397
 20
146.0814298643969
 30
0.0
 11
-78.15000010754395
 21
146.0814298643969
 31
0.0
  0
LINE
  5
19F
330
8B
100
AcDbEntity
  8
0
  6
Continuous
 62
     7
100
AcDbLine
 10
-72.95000010754397
 20
146.0814298643969
 30
0.0
 11
-72.95000010754397
 21
146.2675004059575
 31
0.0
  0
LINE
  5
1A0
330
8B
100
AcDbEntity
  8
0
  6
Continuous
 62
     7
100
AcDbLine
 10
-72.95000010754397
 20
146.2675004059575
 30
0.0
 11
-78.15000010754395
 21
146.2675004059575
 31
0.0
  0
LINE
  5
1A1
330
8B
100
AcDbEntity
  8
0
  6
Continuous
 62
     7
100
AcDbLine
 10
-80.50000010754093
 20
145.9544753680906
 30
0.0
 11
-81.15000010754375
 21
145.9544753680906
 31
0.0
  0
LINE
  5
1A2
330
8B
100
AcDbEntity
  8
0
  6
Continuous
 62
     7
100
AcDbLine
 10
-78.80000010754043
 20
147.5675004059569
 30
0.0
 11
-78.80000010754043
 21
150.5675004059569
 31
0.0
  0
LINE
  5
1A3
330
8B
100
AcDbEntity
  8
0
  6
Continuous
 62
     7
100
AcDbLine
 10
-72.30000010754043
 20
150.5675004059569
 30
0.0
 11
-78.80000010754043
 21
150.5675004059569
 31
0.0
  0
LINE
  5
1A4
330
8B
100
AcDbEntity
  8
0
  6
Continuous
 62
     7
100
AcDbLine
 10
-72.95000010754399
 20
146.4535709475181
 30
0.0
 11
-78.15000010754395
 21
146.4535709475181
 31
0.0
  0
LINE
  5
1A5
330
8B
100
AcDbEntity
  8
0
  6
Continuous
 62
     7
100
AcDbLine
 10
-64.10000010753993
 20
150.5675004059569
 30
0.0
 11
-70.60000010753993
 21
150.5675004059569
 31
0.0
  0
LINE
  5
1A6
330
8B
100
AcDbEntity
  8
0
  6
Continuous
 62
     7
100
AcDbLine
 10
-72.95000010754399
 20
147.5675004059569
 30
0.0
 11
-78.15000010754395
 21
147.5675004059569
 31
0.0
  0
LINE
  5
1A7
330
8B
100
AcDbEntity
  8
0
  6
Continuous
 62
     7
100
AcDbLine
 10
-64.10000010753993
 20
143.1175004059569
 30
0.0
 11
-64.10000010753993
 21
150.5675004059569
 31
0.0
  0
LINE
  5
1A8
330
8B
100
AcDbEntity
  8
0
  6
Continuous
 62
     7
100
AcDbLine
 10
-69.95000010754396
 20
145.9544753680937
 30
0.0
 11
-70.60000010753993
 21
145.9544753680906
 31
0.0
  0
LINE
  5
1A9
330
8B
100
AcDbEntity
  8
0
  6
Continuous
 62
     7
100
AcDbLine
 10
-69.95000010754396
 20
145.9544753680937
 30
0.0
 11
-69.9500001075439
 21
142.1963461327636
 31
0.0
  0
LINE
  5
1AA
330
8B
100
AcDbEntity
  8
0
  6
Continuous
 62
     7
100
AcDbLine
 10
-64.75000010754397
 20
142.1963461327642
 30
0.0
 11
-64.75000010754398
 21
143.1459102798454
 31
0.0
  0
LINE
  5
1AB
330
8B
100
AcDbEntity
  8
0
  6
Continuous
 62
     7
100
AcDbLine
 10
-86.35000010754368
 20
142.1963461327642
 30
0.0
 11
-85.54000010758685
 21
140.7933849787085
 31
0.0
  0
LINE
  5
1AC
330
8B
100
AcDbEntity
  8
0
  6
Continuous
 62
     7
100
AcDbLine
 10
-81.15000010754372
 20
142.1963461327638
 30
0.0
 11
-81.99000010754366
 21
140.741423454406
 31
0.0
  0
LINE
  5
1AD
330
8B
100
AcDbEntity
  8
0
  6
Continuous
 62
     7
100
AcDbLine
 10
-64.75000010754397
 20
142.1963461327642
 30
0.0
 11
-65.59000010753365
 21
140.7414234544242
 31
0.0
  0
LINE
  5
1AE
330
8B
100
AcDbEntity
  8
0
  6
Continuous
 62
     7
100
AcDbLine
 10
-69.14000010758699
 20
140.7933849787074
 30
0.0
 11
-69.9500001075439
 21
142.1963461327636
 31
0.0
  0
LINE
  5
1AF
330
8B
100
AcDbEntity
  8
0
  6
Continuous
 62
     7
100
AcDbLine
 10
-77.34000010758686
 20
140.7933849787088
 30
0.0
 11
-78.15000010754389
 21
142.1963461327651
 31
0.0
  0
LINE
  5
1B0
330
8B
100
AcDbEntity
  8
0
  6
Continuous
 62
     7
100
AcDbLine
 10
-73.79000010754413
 20
140.7414234544053
 30
0.0
 11
-72.9500001075439
 21
142.1963461327636
 31
0.0
  0
LINE
  5
1B1
330
8B
100
AcDbEntity
  8
0
  6
Continuous
 62
     7
100
AcDbLine
 10
-85.54000010758669
 20
133.0029109377492
 30
0.0
 11
-85.54000010758685
 21
140.7933849787085
 31
0.0
  0
LINE
  5
1B2
330
8B
100
AcDbEntity
  8
0
  6
Continuous
 62
     7
100
AcDbLine
 10
-69.14000010758699
 20
140.7933849787074
 30
0.0
 11
-69.1400001075869
 21
133.0029109377495
 31
0.0
  0
LINE
  5
1B3
330
8B
100
AcDbEntity
  8
0
  6
Continuous
 62
     7
100
AcDbLine
 10
-65.59000010753365
 20
140.7414234544242
 30
0.0
 11
-65.5900001075336
 21
132.9560569413045
 31
0.0
  0
ARC
  5
1B4
330
8B
100
AcDbEntity
  8
0
  6
Continuous
 62
     7
100
AcDbCircle
 10
-87.00000010754093
 20
150.5675004059569
 30
0.0
 40
7.450000000000017
100
AcDbArc
 50
270.0
 51
275.0053246925025
  0
ARC
  5
1B5
330
8B
100
AcDbEntity
  8
0
  6
Continuous
 62
     7
100
AcDbCircle
 10
-64.10000010753993
 20
150.5675004059569
 30
0.0
 40
7.450000000000077
100
AcDbArc
 50
264.9946753074449
 51
270.0
  0
ARC
  5
1B6
330
8B
100
AcDbEntity
  8
0
  6
Continuous
 62
     7
100
AcDbCircle
 10
-64.10000010753993
 20
150.5675004059569
 30
0.0
 40
7.449999999999993
100
AcDbArc
 50
218.2575912012612
 51
264.9946753074449
  0
ARC
  5
1B7
330
8B
100
AcDbEntity
  8
0
  6
Continuous
 62
     7
100
AcDbCircle
 10
-87.0000001075448
 20
150.5675004059548
 30
0.0
 40
7.449999999998321
100
AcDbArc
 50
275.0053246925337
 51
321.7424087987186
  0
ENDBLK
  5
8D
330
8B
100
AcDbEntity
  8
0
100
AcDbBlockEnd
  0
BLOCK
  5
90
330
8E
100
AcDbEntity
  8
0
100
AcDbBlockBegin
  2
Left1
 70
     0
 10
-75.55000030993415
 20
145.00000000004
 30
0.0
  3
Left1
  1

  0
INSERT
  5
8F
330
8E
100
AcDbEntity
  8
0
100
AcDbBlockReference
  2
FBS_3_8_select__4
 10
-87.00000010754093
 20
129.9375004058456
 30
0.0
  0
MTEXT
  5
1B8
330
8E
100
AcDbEntity
  8
1
 62
     6
100
AcDbMText
 10
-75.55000030993415
 20
124.9374997616214
 30
0.0
 40
5.0
 41
0.0
 71
     2
 72
     1
  1
 
  7
CONVERTER_11
 73
     1
 44
1.32052821128451
  0
ENDBLK
  5
91
330
8E
100
AcDbEntity
  8
0
100
AcDbBlockEnd
  0
BLOCK
  5
93
330
92
100
AcDbEntity
  8
0
100
AcDbBlockBegin
  2
FBS_3_8_select__5
 70
     0
 10
-208.8999998924601
 20
129.9375004058456
 30
0.0
  3
FBS_3_8_select__5
  1

  0
LINE
  5
1B9
330
92
100
AcDbEntity
  8
0
  6
Continuous
 62
     7
100
AcDbLine
 10
-194.8499998924561
 20
146.4535709475181
 30
0.0
 11
-194.8499998924561
 21
147.5675004059569
 31
0.0
  0
LINE
  5
1BA
330
92
100
AcDbEntity
  8
0
  6
Continuous
 62
     7
100
AcDbLine
 10
-194.8499998924561
 20
146.0814298643969
 30
0.0
 11
-194.8499998924561
 21
146.2675004059575
 31
0.0
  0
LINE
  5
1BB
330
92
100
AcDbEntity
  8
0
  6
Continuous
 62
     7
100
AcDbLine
 10
-194.1999998924596
 20
147.5675004059569
 30
0.0
 11
-194.1999998924596
 21
150.5675004059569
 31
0.0
  0
LINE
  5
1BC
330
92
100
AcDbEntity
  8
0
  6
Continuous
 62
     7
100
AcDbLine
 10
-196.0363849785602
 20
129.9375004058456
 30
0.0
 11
-198.8393677537069
 21
129.9375004059797
 31
0.0
  0
LINE
  5
1BD
330
92
100
AcDbEntity
  8
0
  6
Continuous
 62
     7
100
AcDbLine
 10
-186.6999998924601
 20
157.7534512603301
 30
0.0
 11
-186.6999998924601
 21
156.8569641764442
 31
0.0
  0
LINE
  5
1BE
330
92
100
AcDbEntity
  8
0
  6
Continuous
 62
     7
100
AcDbLine
 10
-208.1999998924601
 20
156.8569641764442
 30
0.0
 11
-208.1999998924601
 21
157.7534512603301
 31
0.0
  0
LINE
  5
1BF
330
92
100
AcDbEntity
  8
0
  6
Continuous
 62
     7
100
AcDbLine
 10
-186.6999998924601
 20
157.795656923786
 30
0.0
 11
-186.6999998924601
 21
157.7534512603301
 31
0.0
  0
LINE
  5
1C0
330
92
100
AcDbEntity
  8
0
  6
Continuous
 62
     7
100
AcDbLine
 10
-186.6999998924601
 20
158.6335258097465
 30
0.0
 11
-186.6999998924601
 21
157.795656923786
 31
0.0
  0
LINE
  5
1C1
330
92
100
AcDbEntity
  8
0
  6
Continuous
 62
     7
100
AcDbLine
 10
-208.1999998924601
 20
157.7534512603301
 30
0.0
 11
-208.1999998924601
 21
157.795656923786
 31
0.0
  0
LINE
  5
1C2
330
92
100
AcDbEntity
  8
0
  6
Continuous
 62
     7
100
AcDbLine
 10
-208.1999998924601
 20
157.795656923786
 30
0.0
 11
-208.1999998924601
 21
158.6335258097465
 31
0.0
  0
LINE
  5
1C3
330
92
100
AcDbEntity
  8
0
  6
Continuous
 62
     7
100
AcDbLine
 10
-208.1999998924601
 20
158.6335258097465
 30
0.0
 11
-186.6999998924601
 21
158.6335258097465
 31
0.0
  0
LINE
  5
1C4
330
92
100
AcDbEntity
  8
0
  6
Continuous
 62
     7
100
AcDbLine
 10
-208.1999998924601
 20
157.795656923786
 30
0.0
 11
-186.6999998924601
 21
157.795656923786
 31
0.0
  0
LINE
  5
1C5
330
92
100
AcDbEntity
  8
0
  6
Continuous
 62
     7
100
AcDbLine
 10
-186.6999998924601
 20
157.7534512603301
 30
0.0
 11
-208.1999998924601
 21
157.7534512603301
 31
0.0
  0
LINE
  5
1C6
330
92
100
AcDbEntity
  8
0
  6
Continuous
 62
     7
100
AcDbLine
 10
-186.6999998924601
 20
156.8569641764442
 30
0.0
 11
-208.1999998924601
 21
156.8569641764442
 31
0.0
  0
LINE
  5
1C7
330
92
100
AcDbEntity
  8
0
  6
Continuous
 62
     7
100
AcDbLine
 10
-198.8393677537069
 20
129.9375004059797
 30
0.0
 11
-199.2099998924559
 21
132.9560569412931
 31
0.0
  0
LINE
  5
1C8
330
92
100
AcDbEntity
  8
0
  6
Continuous
 62
     7
100
AcDbLine
 10
-196.0363849785602
 20
129.9375004058456
 30
0.0
 11
-195.6599998924132
 21
133.0029109377494
 31
0.0
  0
LINE
  5
1C9
330
92
100
AcDbEntity
  8
0
  6
Continuous
 62
     7
100
AcDbLine
 10
-204.2363849785435
 20
129.9375004059809
 30
0.0
 11
-203.8599998924131
 21
133.0029109377495
 31
0.0
  0
LINE
  5
1CA
330
92
100
AcDbEntity
  8
0
  6
Continuous
 62
     7
100
AcDbLine
 10
-207.0393677536999
 20
129.937500405849
 30
0.0
 11
-204.2363849785435
 21
129.9375004059809
 31
0.0
  0
LINE
  5
1CB
330
92
100
AcDbEntity
  8
0
  6
Continuous
 62
     7
100
AcDbLine
 10
-199.2099998924559
 20
132.9560569412931
 30
0.0
 11
-199.2099998924559
 21
140.7414234544052
 31
0.0
  0
LINE
  5
1CC
330
92
100
AcDbEntity
  8
0
  6
Continuous
 62
     7
100
AcDbLine
 10
-207.0393677536999
 20
129.937500405849
 30
0.0
 11
-207.4099998924664
 21
132.9560569413044
 31
0.0
  0
LINE
  5
1CD
330
92
100
AcDbEntity
  8
0
  6
Continuous
 62
     7
100
AcDbLine
 10
-195.6599998924132
 20
133.0029109377494
 30
0.0
 11
-195.6599998924131
 21
140.7933849787088
 31
0.0
  0
LINE
  5
1CE
330
92
100
AcDbEntity
  8
0
  6
Continuous
 62
     7
100
AcDbLine
 10
-207.4099998924664
 20
132.9560569413044
 30
0.0
 11
-207.4099998924664
 21
140.7414234544242
 31
0.0
  0
LINE
  5
1CF
330
92
100
AcDbEntity
  8
0
  6
Continuous
 62
     7
100
AcDbLine
 10
-208.249999892456
 20
142.1963461327642
 30
0.0
 11
-208.249999892456
 21
143.1459102798454
 31
0.0
  0
LINE
  5
1D0
330
92
100
AcDbEntity
  8
0
  6
Continuous
 62
     7
100
AcDbLine
 10
-200.049999892456
 20
146.0814298643969
 30
0.0
 11
-200.049999892456
 21
142.1963461327635
 31
0.0
  0
LINE
  5
1D1
330
92
100
AcDbEntity
  8
0
  6
Continuous
 62
     7
100
AcDbLine
 10
-194.8499998924563
 20
142.1963461327648
 30
0.0
 11
-194.8499998924561
 21
146.0814298643969
 31
0.0
  0
LINE
  5
1D2
330
92
100
AcDbEntity
  8
0
  6
Continuous
 62
     7
100
AcDbLine
 10
-203.0499998924584
 20
145.9544753680906
 30
0.0
 11
-203.0499998924561
 21
142.1963461327636
 31
0.0
  0
LINE
  5
1D3
330
92
100
AcDbEntity
  8
0
  6
Continuous
 62
     7
100
AcDbLine
 10
-200.0499998924564
 20
146.4535709475181
 30
0.0
 11
-200.049999892456
 21
146.2675004059575
 31
0.0
  0
LINE
  5
1D4
330
92
100
AcDbEntity
  8
0
  6
Continuous
 62
     7
100
AcDbLine
 10
-200.0499998924564
 20
146.4535709475181
 30
0.0
 11
-194.8499998924561
 21
146.4535709475181
 31
0.0
  0
LINE
  5
1D5
330
92
100
AcDbEntity
  8
0
  6
Continuous
 62
     7
100
AcDbLine
 10
-200.049999892456
 20
146.2675004059575
 30
0.0
 11
-194.8499998924561
 21
146.2675004059575
 31
0.0
  0
LINE
  5
1D6
330
92
100
AcDbEntity
  8
0
  6
Continuous
 62
     7
100
AcDbLine
 10
-194.8499998924561
 20
147.5675004059569
 30
0.0
 11
-194.1999998924596
 21
147.5675004059569
 31
0.0
  0
LINE
  5
1D7
330
92
100
AcDbEntity
  8
0
  6
Continuous
 62
     7
100
AcDbLine
 10
-203.859999892413
 20
140.7933849787074
 30
0.0
 11
-203.0499998924561
 21
142.1963461327636
 31
0.0
  0
LINE
  5
1D8
330
92
100
AcDbEntity
  8
0
  6
Continuous
 62
     7
100
AcDbLine
 10
-200.0499998924564
 20
147.5675004059569
 30
0.0
 11
-194.8499998924561
 21
147.5675004059569
 31
0.0
  0
LINE
  5
1D9
330
92
100
AcDbEntity
  8
0
  6
Continuous
 62
     7
100
AcDbLine
 10
-208.249999892456
 20
142.1963461327642
 30
0.0
 11
-207.4099998924664
 21
140.7414234544242
 31
0.0
  0
LINE
  5
1DA
330
92
100
AcDbEntity
  8
0
  6
Continuous
 62
     7
100
AcDbLine
 10
-203.8599998924131
 20
133.0029109377495
 30
0.0
 11
-203.859999892413
 21
140.7933849787074
 31
0.0
  0
LINE
  5
1DB
330
92
100
AcDbEntity
  8
0
  6
Continuous
 62
     7
100
AcDbLine
 10
-194.8499998924563
 20
142.1963461327648
 30
0.0
 11
-195.6599998924131
 21
140.7933849787088
 31
0.0
  0
LINE
  5
1DC
330
92
100
AcDbEntity
  8
0
  6
Continuous
 62
     7
100
AcDbLine
 10
-199.2099998924559
 20
140.7414234544052
 30
0.0
 11
-200.049999892456
 21
142.1963461327635
 31
0.0
  0
LINE
  5
1DD
330
92
100
AcDbEntity
  8
0
  6
Continuous
 62
     7
100
AcDbLine
 10
-200.6999998924596
 20
147.5675004059569
 30
0.0
 11
-200.6999998924596
 21
150.5675004059569
 31
0.0
  0
LINE
  5
1DE
330
92
100
AcDbEntity
  8
0
  6
Continuous
 62
     7
100
AcDbLine
 10
-200.049999892456
 20
146.2675004059575
 30
0.0
 11
-200.049999892456
 21
146.0814298643969
 31
0.0
  0
LINE
  5
1DF
330
92
100
AcDbEntity
  8
0
  6
Continuous
 62
     7
100
AcDbLine
 10
-208.8999998924601
 20
151.2675004059568
 30
0.0
 11
-208.8999998924601
 21
160.0625004059421
 31
0.0
  0
LINE
  5
1E0
330
92
100
AcDbEntity
  8
0
  6
Continuous
 62
     7
100
AcDbLine
 10
-192.4999998924591
 20
145.9544753680906
 30
0.0
 11
-192.4999998924591
 21
150.5675004059569
 31
0.0
  0
LINE
  5
1E1
330
92
100
AcDbEntity
  8
0
  6
Continuous
 62
     7
100
AcDbLine
 10
-191.8499998924563
 20
142.1963461327638
 30
0.0
 11
-191.8499998924607
 21
145.9544753680906
 31
0.0
  0
LINE
  5
1E2
330
92
100
AcDbEntity
  8
0
  6
Continuous
 62
     7
100
AcDbLine
 10
-186.6999998924601
 20
158.9014750021724
 30
0.0
 11
-186.6999998924601
 21
158.6335258097465
 31
0.0
  0
LINE
  5
1E3
330
92
100
AcDbEntity
  8
0
  6
Continuous
 62
     7
100
AcDbLine
 10
-186.6999998924601
 20
158.9014750021724
 30
0.0
 11
-208.1999998924601
 21
158.9014750021724
 31
0.0
  0
LINE
  5
1E4
330
92
100
AcDbEntity
  8
0
  6
Continuous
 62
     7
100
AcDbLine
 10
-208.1999998924601
 20
158.6335258097465
 30
0.0
 11
-208.1999998924601
 21
158.9014750021724
 31
0.0
  0
LINE
  5
1E5
330
92
100
AcDbEntity
  8
0
  6
Continuous
 62
     7
100
AcDbLine
 10
-185.9999998924591
 20
160.0625004059421
 30
0.0
 11
-208.8999998924601
 21
160.0625004059421
 31
0.0
  0
LINE
  5
1E6
330
92
100
AcDbEntity
  8
0
  6
Continuous
 62
     7
100
AcDbLine
 10
-191.0099998924564
 20
132.9560569412933
 30
0.0
 11
-190.6393677537074
 21
129.9375004059799
 31
0.0
  0
LINE
  5
1E7
330
92
100
AcDbEntity
  8
0
  6
Continuous
 62
     7
100
AcDbLine
 10
-191.0099998924563
 20
140.741423454406
 30
0.0
 11
-191.0099998924564
 21
132.9560569412933
 31
0.0
  0
LINE
  5
1E8
330
92
100
AcDbEntity
  8
0
  6
Continuous
 62
     7
100
AcDbLine
 10
-190.6393677537074
 20
129.9375004059799
 30
0.0
 11
-187.8363849785603
 21
129.9375004058458
 31
0.0
  0
LINE
  5
1E9
330
92
100
AcDbEntity
  8
0
  6
Continuous
 62
     7
100
AcDbLine
 10
-191.8499998924607
 20
145.9544753680906
 30
0.0
 11
-192.4999998924591
 21
145.9544753680906
 31
0.0
  0
LINE
  5
1EA
330
92
100
AcDbEntity
  8
0
  6
Continuous
 62
     7
100
AcDbLine
 10
-191.0099998924563
 20
140.741423454406
 30
0.0
 11
-191.8499998924563
 21
142.1963461327638
 31
0.0
  0
LINE
  5
1EB
330
92
100
AcDbEntity
  8
0
  6
Continuous
 62
     7
100
AcDbLine
 10
-200.6999998924596
 20
147.5675004059569
 30
0.0
 11
-200.0499998924564
 21
147.5675004059569
 31
0.0
  0
LINE
  5
1EC
330
92
100
AcDbEntity
  8
0
  6
Continuous
 62
     7
100
AcDbLine
 10
-200.0499998924564
 20
147.5675004059569
 30
0.0
 11
-200.0499998924564
 21
146.4535709475181
 31
0.0
  0
LINE
  5
1ED
330
92
100
AcDbEntity
  8
0
  6
Continuous
 62
     7
100
AcDbLine
 10
-208.8999998924601
 20
143.1175004059568
 30
0.0
 11
-208.8999998924601
 21
150.5675004059569
 31
0.0
  0
LINE
  5
1EE
330
92
100
AcDbEntity
  8
0
  6
Continuous
 62
     7
100
AcDbLine
 10
-202.3999998924601
 20
145.9544753680906
 30
0.0
 11
-202.3999998924601
 21
150.5675004059569
 31
0.0
  0
LINE
  5
1EF
330
92
100
AcDbEntity
  8
0
  6
Continuous
 62
     7
100
AcDbLine
 10
-202.3999998924601
 20
145.9544753680906
 30
0.0
 11
-203.0499998924584
 21
145.9544753680906
 31
0.0
  0
LINE
  5
1F0
330
92
100
AcDbEntity
  8
0
  6
Continuous
 62
     7
100
AcDbLine
 10
-200.049999892456
 20
146.0814298643969
 30
0.0
 11
-194.8499998924561
 21
146.0814298643969
 31
0.0
  0
LINE
  5
1F1
330
92
100
AcDbEntity
  8
0
  6
Continuous
 62
     7
100
AcDbLine
 10
-194.8499998924561
 20
146.2675004059575
 30
0.0
 11
-194.8499998924561
 21
146.4535709475181
 31
0.0
  0
LINE
  5
1F2
330
92
100
AcDbEntity
  8
0
  6
Continuous
 62
     7
100
AcDbLine
 10
-185.9999998924591
 20
150.5675004059569
 30
0.0
 11
-185.9999998924591
 21
151.2675004059568
 31
0.0
  0
LINE
  5
1F3
330
92
100
AcDbEntity
  8
0
  6
Continuous
 62
     7
100
AcDbLine
 10
-192.4999998924591
 20
150.5675004059569
 30
0.0
 11
-194.1999998924596
 21
150.5675004059569
 31
0.0
  0
LINE
  5
1F4
330
92
100
AcDbEntity
  8
0
  6
Continuous
 62
     7
100
AcDbLine
 10
-200.6999998924596
 20
150.5675004059569
 30
0.0
 11
-202.3999998924601
 21
150.5675004059569
 31
0.0
  0
LINE
  5
1F5
330
92
100
AcDbEntity
  8
0
  6
Continuous
 62
     7
100
AcDbLine
 10
-208.8999998924601
 20
150.5675004059569
 30
0.0
 11
-208.8999998924601
 21
151.2675004059568
 31
0.0
  0
LINE
  5
1F6
330
92
100
AcDbEntity
  8
0
  6
Continuous
 62
     7
100
AcDbLine
 10
-208.8999998924601
 20
150.5675004059569
 30
0.0
 11
-202.3999998924601
 21
150.5675004059569
 31
0.0
  0
LINE
  5
1F7
330
92
100
AcDbEntity
  8
0
  6
Continuous
 62
     7
100
AcDbLine
 10
-192.4999998924591
 20
150.5675004059569
 30
0.0
 11
-185.9999998924591
 21
150.5675004059569
 31
0.0
  0
LINE
  5
1F8
330
92
100
AcDbEntity
  8
0
  6
Continuous
 62
     7
100
AcDbLine
 10
-208.8999998924601
 20
151.2675004059568
 30
0.0
 11
-185.9999998924591
 21
151.2675004059568
 31
0.0
  0
LINE
  5
1F9
330
92
100
AcDbEntity
  8
0
  6
Continuous
 62
     7
100
AcDbLine
 10
-194.1999998924596
 20
150.5675004059569
 30
0.0
 11
-200.6999998924596
 21
150.5675004059569
 31
0.0
  0
LINE
  5
1FA
330
92
100
AcDbEntity
  8
0
  6
Continuous
 62
     7
100
AcDbLine
 10
-186.6499998924563
 20
143.1459102798448
 30
0.0
 11
-186.6499998924563
 21
142.1963461327645
 31
0.0
  0
LINE
  5
1FB
330
92
100
AcDbEntity
  8
0
  6
Continuous
 62
     7
100
AcDbLine
 10
-187.4599998924132
 20
140.7933849787085
 30
0.0
 11
-186.6499998924563
 21
142.1963461327645
 31
0.0
  0
LINE
  5
1FC
330
92
100
AcDbEntity
  8
0
  6
Continuous
 62
     7
100
AcDbLine
 10
-187.4599998924132
 20
140.7933849787085
 30
0.0
 11
-187.4599998924133
 21
133.0029109377491
 31
0.0
  0
LINE
  5
1FD
330
92
100
AcDbEntity
  8
0
  6
Continuous
 62
     7
100
AcDbLine
 10
-185.9999998924591
 20
143.1175004059568
 30
0.0
 11
-185.9999998924591
 21
150.5675004059569
 31
0.0
  0
LINE
  5
1FE
330
92
100
AcDbEntity
  8
0
  6
Continuous
 62
     7
100
AcDbLine
 10
-187.4599998924133
 20
133.0029109377491
 30
0.0
 11
-187.8363849785603
 21
129.9375004058458
 31
0.0
  0
LINE
  5
1FF
330
92
100
AcDbEntity
  8
0
  6
Continuous
 62
     7
100
AcDbLine
 10
-185.9999998924591
 20
151.2675004059568
 30
0.0
 11
-185.9999998924591
 21
160.0625004059421
 31
0.0
  0
ARC
  5
200
330
92
100
AcDbEntity
  8
0
  6
Continuous
 62
     7
100
AcDbCircle
 10
-185.9999998924591
 20
150.5675004059569
 30
0.0
 40
7.449999999999992
100
AcDbArc
 50
218.2575912012916
 51
264.9946753074979
  0
ARC
  5
201
330
92
100
AcDbEntity
  8
0
  6
Continuous
 62
     7
100
AcDbCircle
 10
-208.8999998924601
 20
150.5675004059569
 30
0.0
 40
7.450000000000102
100
AcDbArc
 50
270.0
 51
275.0053246925554
  0
ARC
  5
202
330
92
100
AcDbEntity
  8
0
  6
Continuous
 62
     7
100
AcDbCircle
 10
-185.9999998924591
 20
150.5675004059569
 30
0.0
 40
7.450000000000072
100
AcDbArc
 50
264.9946753074979
 51
270.0
  0
ARC
  5
203
330
92
100
AcDbEntity
  8
0
  6
Continuous
 62
     7
100
AcDbCircle
 10
-208.8999998924601
 20
150.5675004059569
 30
0.0
 40
7.45000000000008
100
AcDbArc
 50
275.0053246925554
 51
321.7424087987089
  0
ENDBLK
  5
94
330
92
100
AcDbEntity
  8
0
100
AcDbBlockEnd
  0
BLOCK
  5
97
330
95
100
AcDbEntity
  8
0
100
AcDbBlockBegin
  2
Right1
 70
     0
 10
-197.4499996900659
 20
145.00000000004
 30
0.0
  3
Right1
  1

  0
INSERT
  5
96
330
95
100
AcDbEntity
  8
0
100
AcDbBlockReference
  2
FBS_3_8_select__5
 10
-208.8999998924601
 20
129.9375004058456
 30
0.0
  0
MTEXT
  5
204
330
95
100
AcDbEntity
  8
1
 62
     6
100
AcDbMText
 10
-197.4499996900659
 20
124.9374997616214
 30
0.0
 40
5.0
 41
0.0
 71
     2
 72
     1
  1
 
  7
CONVERTER_11
 73
     1
 44
1.32052821128451
  0
ENDBLK
  5
98
330
95
100
AcDbEntity
  8
0
100
AcDbBlockEnd
  0
BLOCK
  5
9A
330
99
100
AcDbEntity
  8
0
100
AcDbBlockBegin
  2
FBS_3_8_select__6
 70
     0
 10
-134.5999999900867
 20
77.03749986912142
 30
0.0
  3
FBS_3_8_select__6
  1

  0
LINE
  5
205
330
99
100
AcDbEntity
  8
0
  6
Continuous
 62
     7
100
AcDbLine
 10
-131.3999999900867
 20
99.93749986912242
 30
0.0
 11
-134.5999999900867
 21
99.93749986912242
 31
0.0
  0
LINE
  5
206
330
99
100
AcDbEntity
  8
0
  6
Continuous
 62
     7
100
AcDbLine
 10
-131.3999999900867
 20
99.93749986912242
 30
0.0
 11
-131.3999999900867
 21
77.03749986912142
 31
0.0
  0
LINE
  5
207
330
99
100
AcDbEntity
  8
0
  6
Continuous
 62
     7
100
AcDbLine
 10
-134.5999999900867
 20
77.03749986912142
 30
0.0
 11
-131.3999999900867
 21
77.03749986912142
 31
0.0
  0
LINE
  5
208
330
99
100
AcDbEntity
  8
0
  6
Continuous
 62
     7
100
AcDbLine
 10
-134.5999999900867
 20
77.03749986912142
 30
0.0
 11
-134.5999999900867
 21
99.93749986912242
 31
0.0
  0
ENDBLK
  5
9B
330
99
100
AcDbEntity
  8
0
100
AcDbBlockEnd
  0
BLOCK
  5
9E
330
9C
100
AcDbEntity
  8
0
100
AcDbBlockBegin
  2
Top1
 70
     0
 10
-133.0000000000401
 20
88.48750007151565
 30
0.0
  3
Top1
  1

  0
INSERT
  5
9D
330
9C
100
AcDbEntity
  8
0
100
AcDbBlockReference
  2
FBS_3_8_select__6
 10
-134.5999999900867
 20
77.03749986912142
 30
0.0
  0
MTEXT
  5
209
330
9C
100
AcDbEntity
  8
1
 62
     6
100
AcDbMText
 10
-133.00000000004
 20
72.03750038145972
 30
0.0
 40
5.0
 41
0.0
 71
     2
 72
     1
  1
 
  7
CONVERTER_11
 73
     1
 44
1.32052821128451
  0
DIMENSION
  5
214
330
9C
100
AcDbEntity
  8
1
100
AcDbDimension
  2
*D20
 10
-143.750219381801
 20
99.93749986912242
 30
0.0
 11
-147.675219381801
 21
88.7271319543441
 31
0.0
 70
    32
  1
<>
 71
     5
 42
-1.0
 53
90.0
  3
ME10_DIM_13
100
AcDbAlignedDimension
 13
-134.5999999900867
 23
77.03749986912142
 33
0.0
 14
-134.5999999900867
 24
99.93749986912242
 34
0.0
 50
90.0
100
AcDbRotatedDimension
  0
ENDBLK
  5
9F
330
9C
100
AcDbEntity
  8
0
100
AcDbBlockEnd
  0
BLOCK
  5
A1
330
A0
100
AcDbEntity
  8
0
100
AcDbBlockBegin
  2
_rahmen
 70
     0
 10
34.36203818016038
 20
4.13591899505093
 30
0.0
  3
_rahmen
  1

  0
LINE
  5
215
330
A0
100
AcDbEntity
  8
1
  6
Continuous
 62
     6
100
AcDbLine
 10
-95.18276634658963
 20
34.63591899505104
 30
0.0
 11
34.36203818016207
 21
34.63591899505104
 31
0.0
  0
LINE
  5
216
330
A0
100
AcDbEntity
  8
1
  6
Continuous
 62
     7
100
AcDbLine
 10
-76.98276634658961
 20
13.38591899505104
 30
0.0
 11
-58.78276634658971
 21
13.38591899505104
 31
0.0
  0
LINE
  5
217
330
A0
100
AcDbEntity
  8
1
  6
Continuous
 62
     6
100
AcDbLine
 10
-76.98276634658961
 20
9.13591899505104
 30
0.0
 11
-95.18276634658963
 21
9.13591899505093
 31
0.0
  0
LINE
  5
218
330
A0
100
AcDbEntity
  8
1
  6
Continuous
 62
     7
100
AcDbLine
 10
-76.98276634658961
 20
13.38591899505104
 30
0.0
 11
-76.98276634658961
 21
9.13591899505104
 31
0.0
  0
LINE
  5
219
330
A0
100
AcDbEntity
  8
1
  6
Continuous
 62
     7
100
AcDbLine
 10
-58.78276634658971
 20
13.38591899505104
 30
0.0
 11
-58.78276634658971
 21
9.13591899505093
 31
0.0
  0
LINE
  5
21A
330
A0
100
AcDbEntity
  8
1
  6
Continuous
 62
     7
100
AcDbLine
 10
-95.18276634658963
 20
13.38591899505093
 30
0.0
 11
-95.18276634658963
 21
9.13591899505093
 31
0.0
  0
LINE
  5
21B
330
A0
100
AcDbEntity
  8
1
  6
Continuous
 62
     7
100
AcDbLine
 10
-95.18276634658963
 20
13.38591899505093
 30
0.0
 11
-76.98276634658961
 21
13.38591899505104
 31
0.0
  0
LINE
  5
21C
330
A0
100
AcDbEntity
  8
1
  6
Continuous
 62
     2
100
AcDbLine
 10
-85.94611146002703
 20
32.76091899505096
 30
0.0
 11
-85.94611146002703
 21
27.76091899505096
 31
0.0
  0
LINE
  5
21D
330
A0
100
AcDbEntity
  8
1
  6
Continuous
 62
     2
100
AcDbLine
 10
-85.94611146002703
 20
27.76091899505096
 30
0.0
 11
-90.94611146002703
 21
29.01091899505096
 31
0.0
  0
LINE
  5
21E
330
A0
100
AcDbEntity
  8
1
  6
Continuous
 62
     2
100
AcDbLine
 10
-90.94611146002703
 20
29.01091899505096
 30
0.0
 11
-90.94611146002703
 21
31.51091899505096
 31
0.0
  0
LINE
  5
21F
330
A0
100
AcDbEntity
  8
1
  6
Continuous
 62
     2
100
AcDbLine
 10
-90.94611146002703
 20
31.51091899505096
 30
0.0
 11
-85.94611146002703
 21
32.76091899505096
 31
0.0
  0
LINE
  5
220
330
A0
100
AcDbEntity
  8
1
  6
Continuous
 62
     6
100
AcDbLine
 10
-217.6379618198378
 20
9.13591899505104
 30
0.0
 11
-252.6379618198377
 21
9.13591899505104
 31
0.0
  0
LINE
  5
221
330
A0
100
AcDbEntity
  8
1
  6
Continuous
 62
     6
100
AcDbLine
 10
34.36203818016207
 20
26.13591899505104
 30
0.0
 11
34.36203818016168
 21
17.63591899505104
 31
0.0
  0
LINE
  5
222
330
A0
100
AcDbEntity
  8
1
  6
Continuous
 62
     6
100
AcDbLine
 10
-58.78276634658971
 20
9.13591899505093
 30
0.0
 11
-59.13796181983963
 21
9.13591899505104
 31
0.0
  0
LINE
  5
223
330
A0
100
AcDbEntity
  8
1
  6
Continuous
 62
     6
100
AcDbLine
 10
-211.4379618198398
 20
9.13591899505093
 30
0.0
 11
-217.6379618198378
 21
9.13591899505104
 31
0.0
  0
LINE
  5
224
330
A0
100
AcDbEntity
  8
1
  6
Continuous
 62
     7
100
AcDbLine
 10
-58.78276634658971
 20
26.13591899505104
 30
0.0
 11
-58.78276634658971
 21
13.38591899505104
 31
0.0
  0
LINE
  5
225
330
A0
100
AcDbEntity
  8
1
  6
Continuous
 62
     7
100
AcDbLine
 10
-95.18276634658963
 20
26.13591899505104
 30
0.0
 11
-95.18276634658963
 21
13.38591899505093
 31
0.0
  0
LINE
  5
226
330
A0
100
AcDbEntity
  8
1
  6
Continuous
 62
     6
100
AcDbLine
 10
-109.1379618198396
 20
9.13591899505104
 30
0.0
 11
-159.1379618198398
 21
9.13591899505104
 31
0.0
  0
LINE
  5
227
330
A0
100
AcDbEntity
  8
1
  6
Continuous
 62
     6
100
AcDbLine
 10
-211.4379618198398
 20
9.13591899505093
 30
0.0
 11
-209.1379618198396
 21
9.13591899505104
 31
0.0
  0
LINE
  5
228
330
A0
100
AcDbEntity
  8
1
  6
Continuous
 62
     6
100
AcDbLine
 10
-58.78276634658971
 20
9.13591899505093
 30
0.0
 11
-9.13796181983963
 21
9.13591899505104
 31
0.0
  0
LINE
  5
229
330
A0
100
AcDbEntity
  8
1
  6
Continuous
 62
     6
100
AcDbLine
 10
34.36203818016038
 20
9.13591899505104
 30
0.0
 11
34.36203818016168
 21
17.63591899505104
 31
0.0
  0
LINE
  5
22A
330
A0
100
AcDbEntity
  8
1
  6
Continuous
 62
     2
100
AcDbLine
 10
-257.6379618198387
 20
9.13591899505104
 30
0.0
 11
-257.6379618198387
 21
4.13591899505093
 31
0.0
  0
LINE
  5
22B
330
A0
100
AcDbEntity
  8
1
  6
Continuous
 62
     2
100
AcDbLine
 10
-252.6379618198377
 20
9.13591899505104
 30
0.0
 11
-257.6379618198387
 21
9.13591899505104
 31
0.0
  0
LINE
  5
22C
330
A0
100
AcDbEntity
  8
1
  6
Continuous
 62
     2
100
AcDbLine
 10
-252.6379618198377
 20
4.13591899505093
 30
0.0
 11
-209.1379618198396
 21
4.13591899505093
 31
0.0
  0
LINE
  5
22D
330
A0
100
AcDbEntity
  8
1
  6
Continuous
 62
     2
100
AcDbLine
 10
-252.6379618198377
 20
9.13591899505104
 30
0.0
 11
-252.6379618198377
 21
4.13591899505093
 31
0.0
  0
LINE
  5
22E
330
A0
100
AcDbEntity
  8
1
  6
Continuous
 62
     2
100
AcDbLine
 10
-9.13796181983963
 20
4.13591899505093
 30
0.0
 11
-59.13796181983963
 21
4.13591899505093
 31
0.0
  0
LINE
  5
22F
330
A0
100
AcDbEntity
  8
1
  6
Continuous
 62
     2
100
AcDbLine
 10
-9.13796181983963
 20
4.13591899505093
 30
0.0
 11
-9.13796181983963
 21
9.13591899505104
 31
0.0
  0
LINE
  5
230
330
A0
100
AcDbEntity
  8
1
  6
Continuous
 62
     2
100
AcDbLine
 10
-59.13796181983963
 20
4.13591899505093
 30
0.0
 11
-59.13796181983963
 21
9.13591899505104
 31
0.0
  0
LINE
  5
231
330
A0
100
AcDbEntity
  8
1
  6
Continuous
 62
     2
100
AcDbLine
 10
-109.1379618198396
 20
4.13591899505093
 30
0.0
 11
-59.13796181983963
 21
4.13591899505093
 31
0.0
  0
LINE
  5
232
330
A0
100
AcDbEntity
  8
1
  6
Continuous
 62
     2
100
AcDbLine
 10
-109.1379618198396
 20
4.13591899505093
 30
0.0
 11
-109.1379618198396
 21
9.13591899505104
 31
0.0
  0
LINE
  5
233
330
A0
100
AcDbEntity
  8
1
  6
Continuous
 62
     2
100
AcDbLine
 10
-159.1379618198398
 20
4.13591899505093
 30
0.0
 11
-109.1379618198396
 21
4.13591899505093
 31
0.0
  0
LINE
  5
234
330
A0
100
AcDbEntity
  8
1
  6
Continuous
 62
     2
100
AcDbLine
 10
-159.1379618198398
 20
4.13591899505093
 30
0.0
 11
-159.1379618198398
 21
9.13591899505104
 31
0.0
  0
LINE
  5
235
330
A0
100
AcDbEntity
  8
1
  6
Continuous
 62
     2
100
AcDbLine
 10
-209.1379618198396
 20
4.13591899505093
 30
0.0
 11
-159.1379618198398
 21
4.13591899505093
 31
0.0
  0
LINE
  5
236
330
A0
100
AcDbEntity
  8
1
  6
Continuous
 62
     2
100
AcDbLine
 10
-209.1379618198396
 20
4.13591899505093
 30
0.0
 11
-209.1379618198396
 21
9.13591899505104
 31
0.0
  0
LINE
  5
237
330
A0
100
AcDbEntity
  8
1
  6
Continuous
 62
     6
100
AcDbLine
 10
-252.6379618198379
 20
59.13591899505116
 30
0.0
 11
-252.6379618198377
 21
9.13591899505104
 31
0.0
  0
LINE
  5
238
330
A0
100
AcDbEntity
  8
1
  6
Continuous
 62
     2
100
AcDbLine
 10
-257.6379618198387
 20
59.13591899505116
 30
0.0
 11
-257.6379618198387
 21
9.13591899505104
 31
0.0
  0
LINE
  5
239
330
A0
100
AcDbEntity
  8
1
  6
Continuous
 62
     2
100
AcDbLine
 10
-257.6379618198387
 20
59.13591899505116
 30
0.0
 11
-252.6379618198379
 21
59.13591899505116
 31
0.0
  0
LINE
  5
23A
330
A0
100
AcDbEntity
  8
1
  6
Continuous
 62
     6
100
AcDbLine
 10
-252.6379618198381
 20
109.135918995051
 30
0.0
 11
-252.6379618198379
 21
59.13591899505116
 31
0.0
  0
LINE
  5
23B
330
A0
100
AcDbEntity
  8
1
  6
Continuous
 62
     2
100
AcDbLine
 10
-257.6379618198387
 20
109.135918995051
 30
0.0
 11
-257.6379618198387
 21
59.13591899505116
 31
0.0
  0
LINE
  5
23C
330
A0
100
AcDbEntity
  8
1
  6
Continuous
 62
     2
100
AcDbLine
 10
-257.6379618198387
 20
109.135918995051
 30
0.0
 11
-252.6379618198381
 21
109.135918995051
 31
0.0
  0
LINE
  5
23D
330
A0
100
AcDbEntity
  8
1
  6
Continuous
 62
     6
100
AcDbLine
 10
-252.6379618198386
 20
159.135918995051
 30
0.0
 11
-252.6379618198381
 21
109.135918995051
 31
0.0
  0
LINE
  5
23E
330
A0
100
AcDbEntity
  8
1
  6
Continuous
 62
     2
100
AcDbLine
 10
-257.6379618198387
 20
159.135918995051
 30
0.0
 11
-257.6379618198387
 21
109.135918995051
 31
0.0
  0
LINE
  5
23F
330
A0
100
AcDbEntity
  8
1
  6
Continuous
 62
     2
100
AcDbLine
 10
-257.6379618198387
 20
159.135918995051
 30
0.0
 11
-252.6379618198386
 21
159.135918995051
 31
0.0
  0
LINE
  5
240
330
A0
100
AcDbEntity
  8
1
  6
Continuous
 62
     6
100
AcDbLine
 10
-252.6379618198387
 20
194.135918995051
 30
0.0
 11
-252.6379618198386
 21
159.135918995051
 31
0.0
  0
LINE
  5
241
330
A0
100
AcDbEntity
  8
1
  6
Continuous
 62
     2
100
AcDbLine
 10
-257.6379618198387
 20
214.135918995051
 30
0.0
 11
-257.6379618198387
 21
159.135918995051
 31
0.0
  0
LINE
  5
242
330
A0
100
AcDbEntity
  8
1
  6
Continuous
 62
     2
100
AcDbLine
 10
-257.6379618198387
 20
4.13591899505093
 30
0.0
 11
-252.6379618198377
 21
4.13591899505093
 31
0.0
  0
LINE
  5
243
330
A0
100
AcDbEntity
  8
1
  6
Continuous
 62
     2
100
AcDbLine
 10
-109.1379618198396
 20
214.135918995051
 30
0.0
 11
-109.1379618198396
 21
204.9272271503497
 31
0.0
  0
LINE
  5
244
330
A0
100
AcDbEntity
  8
1
  6
Continuous
 62
     2
100
AcDbLine
 10
-109.1379618198396
 20
214.135918995051
 30
0.0
 11
-257.6379618198387
 21
214.135918995051
 31
0.0
  0
LINE
  5
245
330
A0
100
AcDbEntity
  8
1
  6
Continuous
 62
     2
100
AcDbLine
 10
39.36203818015937
 20
9.13591899505104
 30
0.0
 11
39.36203818015937
 21
59.13591899505116
 31
0.0
  0
LINE
  5
246
330
A0
100
AcDbEntity
  8
1
  6
Continuous
 62
     2
100
AcDbLine
 10
39.36203818015937
 20
159.135918995051
 30
0.0
 11
39.36203818015937
 21
214.135918995051
 31
0.0
  0
LINE
  5
247
330
A0
100
AcDbEntity
  8
1
  6
Continuous
 62
     6
100
AcDbLine
 10
34.36203818015957
 20
159.135918995051
 30
0.0
 11
34.36203818015937
 21
194.135918995051
 31
0.0
  0
LINE
  5
248
330
A0
100
AcDbEntity
  8
1
  6
Continuous
 62
     2
100
AcDbLine
 10
34.36203818015957
 20
159.135918995051
 30
0.0
 11
39.36203818015937
 21
159.135918995051
 31
0.0
  0
LINE
  5
249
330
A0
100
AcDbEntity
  8
1
  6
Continuous
 62
     2
100
AcDbLine
 10
39.36203818015937
 20
109.135918995051
 30
0.0
 11
39.36203818015937
 21
159.135918995051
 31
0.0
  0
LINE
  5
24A
330
A0
100
AcDbEntity
  8
1
  6
Continuous
 62
     6
100
AcDbLine
 10
34.36203818016078
 20
109.135918995051
 30
0.0
 11
34.36203818015957
 21
159.135918995051
 31
0.0
  0
LINE
  5
24B
330
A0
100
AcDbEntity
  8
1
  6
Continuous
 62
     2
100
AcDbLine
 10
34.36203818016078
 20
109.135918995051
 30
0.0
 11
39.36203818015937
 21
109.135918995051
 31
0.0
  0
LINE
  5
24C
330
A0
100
AcDbEntity
  8
1
  6
Continuous
 62
     2
100
AcDbLine
 10
39.36203818015937
 20
59.13591899505116
 30
0.0
 11
39.36203818015937
 21
109.135918995051
 31
0.0
  0
LINE
  5
24D
330
A0
100
AcDbEntity
  8
1
  6
Continuous
 62
     6
100
AcDbLine
 10
34.36203818016128
 20
59.13591899505116
 30
0.0
 11
34.36203818016078
 21
109.135918995051
 31
0.0
  0
LINE
  5
24E
330
A0
100
AcDbEntity
  8
1
  6
Continuous
 62
     2
100
AcDbLine
 10
34.36203818016128
 20
59.13591899505116
 30
0.0
 11
39.36203818015937
 21
59.13591899505116
 31
0.0
  0
LINE
  5
24F
330
A0
100
AcDbEntity
  8
1
  6
Continuous
 62
     6
100
AcDbLine
 10
34.36203818015937
 20
194.135918995051
 30
0.0
 11
-252.6379618198387
 21
194.135918995051
 31
0.0
  0
LINE
  5
250
330
A0
100
AcDbEntity
  8
1
  6
Continuous
 62
     2
100
AcDbLine
 10
39.36203818015937
 20
214.135918995051
 30
0.0
 11
-109.1379618198396
 21
214.135918995051
 31
0.0
  0
LINE
  5
251
330
A0
100
AcDbEntity
  8
1
  6
Continuous
 62
     6
100
AcDbLine
 10
34.36203818016207
 20
26.13591899505104
 30
0.0
 11
34.36203818016128
 21
59.13591899505116
 31
0.0
  0
LINE
  5
252
330
A0
100
AcDbEntity
  8
1
  6
Continuous
 62
     2
100
AcDbLine
 10
34.36203818016038
 20
4.13591899505093
 30
0.0
 11
-9.13796181983963
 21
4.13591899505093
 31
0.0
  0
LINE
  5
253
330
A0
100
AcDbEntity
  8
1
  6
Continuous
 62
     2
100
AcDbLine
 10
39.36203818015937
 20
4.13591899505093
 30
0.0
 11
34.36203818016038
 21
4.13591899505093
 31
0.0
  0
LINE
  5
254
330
A0
100
AcDbEntity
  8
1
  6
Continuous
 62
     2
100
AcDbLine
 10
39.36203818015937
 20
4.13591899505093
 30
0.0
 11
39.36203818015937
 21
9.13591899505104
 31
0.0
  0
LINE
  5
255
330
A0
100
AcDbEntity
  8
1
  6
Continuous
 62
     6
100
AcDbLine
 10
-95.18276634658963
 20
26.13591899505104
 30
0.0
 11
-58.78276634658971
 21
26.13591899505104
 31
0.0
  0
LINE
  5
256
330
A0
100
AcDbEntity
  8
1
  6
Continuous
 62
     2
100
AcDbLine
 10
34.36203818016038
 20
9.13591899505104
 30
0.0
 11
34.36203818016038
 21
4.13591899505093
 31
0.0
  0
LINE
  5
257
330
A0
100
AcDbEntity
  8
1
  6
Continuous
 62
     2
100
AcDbLine
 10
34.36203818016038
 20
9.13591899505104
 30
0.0
 11
39.36203818015937
 21
9.13591899505104
 31
0.0
  0
LINE
  5
258
330
A0
100
AcDbEntity
  8
1
  6
Continuous
 62
     6
100
AcDbLine
 10
-59.13796181983963
 20
9.13591899505104
 30
0.0
 11
-76.98276634658961
 21
9.13591899505104
 31
0.0
  0
LINE
  5
259
330
A0
100
AcDbEntity
  8
1
  6
Continuous
 62
     6
100
AcDbLine
 10
-9.13796181983963
 20
9.13591899505104
 30
0.0
 11
34.36203818016038
 21
9.13591899505104
 31
0.0
  0
LINE
  5
25A
330
A0
100
AcDbEntity
  8
1
  6
Continuous
 62
     6
100
AcDbLine
 10
-159.1379618198398
 20
9.13591899505104
 30
0.0
 11
-164.1827663465896
 21
9.13591899505104
 31
0.0
  0
LINE
  5
25B
330
A0
100
AcDbEntity
  8
1
  6
Continuous
 62
     6
100
AcDbLine
 10
-109.1379618198396
 20
9.13591899505104
 30
0.0
 11
-95.18276634658963
 21
9.13591899505093
 31
0.0
  0
LINE
  5
25C
102
{ACAD_REACTORS
330
346
330
347
102
}
330
A0
100
AcDbEntity
  8
0
  6
Continuous
 62
     2
100
AcDbLine
 10
-87.66814040444282
 20
21.20843375126316
 30
0.0
 11
-87.66814040444282
 21
21.81396903976994
 31
0.0
  0
LINE
  5
25D
102
{ACAD_REACTORS
330
346
330
347
102
}
330
A0
100
AcDbEntity
  8
0
  6
Continuous
 62
     2
100
AcDbLine
 10
-87.66814040444282
 20
18.40829914463185
 30
0.0
 11
-87.66814040444282
 21
18.99015055132693
 31
0.0
  0
LINE
  5
25E
102
{ACAD_REACTORS
330
348
330
349
102
}
330
A0
100
AcDbEntity
  8
0
  6
Continuous
 62
     2
100
AcDbLine
 10
-65.03865396896362
 20
18.69796321275484
 30
0.0
 11
-65.03865396896362
 21
16.42941899506735
 31
0.0
  0
LINE
  5
25F
102
{ACAD_REACTORS
330
348
330
349
102
}
330
A0
100
AcDbEntity
  8
0
  6
Continuous
 62
     2
100
AcDbLine
 10
-66.41970774795121
 20
19.48322851887795
 30
0.0
 11
-63.03476222932252
 21
19.48322851887843
 31
0.0
  0
LINE
  5
260
102
{ACAD_REACTORS
330
348
330
349
102
}
330
A0
100
AcDbEntity
  8
0
  6
Continuous
 62
     2
100
AcDbLine
 10
-63.03476222932252
 20
18.69796321275484
 30
0.0
 11
-63.03476222932252
 21
19.48322851887843
 31
0.0
  0
LINE
  5
261
102
{ACAD_REACTORS
330
348
330
349
102
}
330
A0
100
AcDbEntity
  8
0
  6
Continuous
 62
     2
100
AcDbLine
 10
-63.84586126679591
 20
18.69796321275484
 30
0.0
 11
-63.03476222932252
 21
18.69796321275484
 31
0.0
  0
LINE
  5
262
102
{ACAD_REACTORS
330
348
330
349
102
}
330
A0
100
AcDbEntity
  8
0
  6
Continuous
 62
     2
100
AcDbLine
 10
-63.84586126679591
 20
16.42941899506735
 30
0.0
 11
-63.84586126679591
 21
18.69796321275484
 31
0.0
  0
LINE
  5
263
102
{ACAD_REACTORS
330
348
330
349
102
}
330
A0
100
AcDbEntity
  8
0
  6
Continuous
 62
     2
100
AcDbLine
 10
-65.03865396896362
 20
16.42941899506735
 30
0.0
 11
-63.84586126679591
 21
16.42941899506735
 31
0.0
  0
LINE
  5
264
102
{ACAD_REACTORS
330
33E
330
33F
102
}
330
A0
100
AcDbEntity
  8
0
  6
Continuous
 62
     2
100
AcDbLine
 10
-65.73524490702812
 20
22.84241899505284
 30
0.0
 11
-67.13796912477741
 21
22.84241899505284
 31
0.0
  0
LINE
  5
265
102
{ACAD_REACTORS
330
33E
330
33F
102
}
330
A0
100
AcDbEntity
  8
0
  6
Continuous
 62
     2
100
AcDbLine
 10
-65.73524490702812
 20
22.84241899505284
 30
0.0
 11
-65.13407738513632
 21
22.16259567349735
 31
0.0
  0
LINE
  5
266
102
{ACAD_REACTORS
330
33E
330
33F
102
}
330
A0
100
AcDbEntity
  8
0
  6
Continuous
 62
     2
100
AcDbLine
 10
-65.13407738513632
 20
22.16259567349735
 30
0.0
 11
-64.53290986324353
 21
22.84241899505284
 31
0.0
  0
LINE
  5
267
102
{ACAD_REACTORS
330
33E
330
33F
102
}
330
A0
100
AcDbEntity
  8
0
  6
Continuous
 62
     2
100
AcDbLine
 10
-64.43271527626283
 20
21.36946846501664
 30
0.0
 11
-63.13018564549631
 21
22.84241899505284
 31
0.0
  0
LINE
  5
268
102
{ACAD_REACTORS
330
33E
330
33F
102
}
330
A0
100
AcDbEntity
  8
0
  6
Continuous
 62
     2
100
AcDbLine
 10
-64.43271527626283
 20
21.36946846501664
 30
0.0
 11
-63.03476222932252
 21
19.78860947124164
 31
0.0
  0
LINE
  5
269
102
{ACAD_REACTORS
330
33E
330
33F
102
}
330
A0
100
AcDbEntity
  8
0
  6
Continuous
 62
     2
100
AcDbLine
 10
-64.43748644707082
 20
19.78860947124164
 30
0.0
 11
-63.03476222932252
 21
19.78860947124164
 31
0.0
  0
LINE
  5
26A
102
{ACAD_REACTORS
330
33E
330
33F
102
}
330
A0
100
AcDbEntity
  8
0
  6
Continuous
 62
     2
100
AcDbLine
 10
-65.13407738513632
 20
20.57634125653536
 30
0.0
 11
-64.43748644707082
 21
19.78860947124164
 31
0.0
  0
LINE
  5
26B
102
{ACAD_REACTORS
330
33C
330
33D
102
}
330
A0
100
AcDbEntity
  8
0
  6
Continuous
 62
     2
100
AcDbLine
 10
-68.59317622142001
 20
22.84241899505284
 30
0.0
 11
-67.35267181116711
 21
22.84241899505284
 31
0.0
  0
LINE
  5
26C
102
{ACAD_REACTORS
330
33C
330
33D
102
}
330
A0
100
AcDbEntity
  8
0
  6
Continuous
 62
     2
100
AcDbLine
 10
-67.35267181116711
 20
22.84241899505284
 30
0.0
 11
-67.35267181116711
 21
19.78860947124164
 31
0.0
  0
LINE
  5
26D
102
{ACAD_REACTORS
330
33C
330
33D
102
}
330
A0
100
AcDbEntity
  8
0
  6
Continuous
 62
     2
100
AcDbLine
 10
-68.59317622142001
 20
19.78860947124164
 30
0.0
 11
-68.59317622142001
 21
22.84241899505284
 31
0.0
  0
LINE
  5
26E
102
{ACAD_REACTORS
330
33A
330
33B
102
}
330
A0
100
AcDbEntity
  8
0
  6
Continuous
 62
     2
100
AcDbLine
 10
-70.06148630395762
 20
17.65094280459184
 30
0.0
 11
-69.76132106676522
 21
18.41875777057854
 31
0.0
  0
LINE
  5
26F
102
{ACAD_REACTORS
330
33A
330
33B
102
}
330
A0
100
AcDbEntity
  8
0
  6
Continuous
 62
     2
100
AcDbLine
 10
-70.53902190857843
 20
16.42941899506735
 30
0.0
 11
-70.32754185510262
 21
16.97037953928523
 31
0.0
  0
LINE
  5
270
102
{ACAD_REACTORS
330
33A
330
33B
102
}
330
A0
100
AcDbEntity
  8
0
  6
Continuous
 62
     2
100
AcDbLine
 10
-70.38157327189211
 20
19.48322851887843
 30
0.0
 11
-71.77952631883142
 21
16.42941899506735
 31
0.0
  0
LINE
  5
271
102
{ACAD_REACTORS
330
33A
330
33B
102
}
330
A0
100
AcDbEntity
  8
0
  6
Continuous
 62
     2
100
AcDbLine
 10
-67.74311581469911
 20
16.42941899506735
 30
0.0
 11
-68.98362022495303
 21
16.42941899506735
 31
0.0
  0
LINE
  5
272
102
{ACAD_REACTORS
330
33A
330
33B
102
}
330
A0
100
AcDbEntity
  8
0
  6
Continuous
 62
     2
100
AcDbLine
 10
-70.32754185510262
 20
16.97037953928523
 30
0.0
 11
-69.19510027842881
 21
16.97037953928523
 31
0.0
  0
LINE
  5
273
102
{ACAD_REACTORS
330
338
330
339
102
}
330
A0
100
AcDbEntity
  8
0
  6
Continuous
 62
     2
100
AcDbLine
 10
-73.93703845801363
 20
18.69796321275484
 30
0.0
 11
-73.12593942053903
 21
18.69796321275484
 31
0.0
  0
LINE
  5
274
102
{ACAD_REACTORS
330
338
330
339
102
}
330
A0
100
AcDbEntity
  8
0
  6
Continuous
 62
     2
100
AcDbLine
 10
-71.12204768090001
 20
19.48322851887843
 30
0.0
 11
-73.93703845801363
 21
19.48322851887843
 31
0.0
  0
LINE
  5
275
102
{ACAD_REACTORS
330
338
330
339
102
}
330
A0
100
AcDbEntity
  8
0
  6
Continuous
 62
     2
100
AcDbLine
 10
-71.12204768090001
 20
18.69796321275484
 30
0.0
 11
-71.12204768090001
 21
19.48322851887843
 31
0.0
  0
LINE
  5
276
102
{ACAD_REACTORS
330
338
330
339
102
}
330
A0
100
AcDbEntity
  8
0
  6
Continuous
 62
     2
100
AcDbLine
 10
-71.93314671837251
 20
18.69796321275484
 30
0.0
 11
-71.12204768090001
 21
18.69796321275484
 31
0.0
  0
LINE
  5
277
102
{ACAD_REACTORS
330
338
330
339
102
}
330
A0
100
AcDbEntity
  8
0
  6
Continuous
 62
     2
100
AcDbLine
 10
-71.93314671837251
 20
16.42941899506735
 30
0.0
 11
-71.93314671837251
 21
18.69796321275484
 31
0.0
  0
LINE
  5
278
102
{ACAD_REACTORS
330
336
330
337
102
}
330
A0
100
AcDbEntity
  8
0
  6
Continuous
 62
     2
100
AcDbLine
 10
-71.26503187427451
 20
19.78860947124164
 30
0.0
 11
-71.26503187427451
 21
21.09738498144634
 31
0.0
  0
LINE
  5
279
102
{ACAD_REACTORS
330
336
330
337
102
}
330
A0
100
AcDbEntity
  8
0
  6
Continuous
 62
     2
100
AcDbLine
 10
-72.45782457644103
 20
22.84241899505284
 30
0.0
 11
-72.45782457644103
 21
19.78860947124164
 31
0.0
  0
LINE
  5
27A
102
{ACAD_REACTORS
330
336
330
337
102
}
330
A0
100
AcDbEntity
  8
0
  6
Continuous
 62
     2
100
AcDbLine
 10
-71.26503187427451
 20
22.84241899505284
 30
0.0
 11
-72.45782457644103
 21
22.84241899505284
 31
0.0
  0
LINE
  5
27B
102
{ACAD_REACTORS
330
336
330
337
102
}
330
A0
100
AcDbEntity
  8
0
  6
Continuous
 62
     2
100
AcDbLine
 10
-70.02452746402051
 20
22.84241899505284
 30
0.0
 11
-70.02452746402051
 21
21.53364348484766
 31
0.0
  0
LINE
  5
27C
102
{ACAD_REACTORS
330
334
330
335
102
}
330
A0
100
AcDbEntity
  8
0
  6
Continuous
 62
     2
100
AcDbLine
 10
-77.70626339686072
 20
19.48322851887843
 30
0.0
 11
-77.70626339686072
 21
16.42941899506735
 31
0.0
  0
LINE
  5
27D
102
{ACAD_REACTORS
330
334
330
335
102
}
330
A0
100
AcDbEntity
  8
0
  6
Continuous
 62
     2
100
AcDbLine
 10
-76.51347069469313
 20
19.48322851887843
 30
0.0
 11
-77.70626339686072
 21
19.48322851887843
 31
0.0
  0
LINE
  5
27E
102
{ACAD_REACTORS
330
334
330
335
102
}
330
A0
100
AcDbEntity
  8
0
  6
Continuous
 62
     2
100
AcDbLine
 10
-75.27296628444023
 20
16.42941899506735
 30
0.0
 11
-74.08017358227383
 21
16.42941899506735
 31
0.0
  0
LINE
  5
27F
102
{ACAD_REACTORS
330
334
330
335
102
}
330
A0
100
AcDbEntity
  8
0
  6
Continuous
 62
     2
100
AcDbLine
 10
-77.70626339686072
 20
16.42941899506735
 30
0.0
 11
-76.51347069469313
 21
16.42941899506735
 31
0.0
  0
LINE
  5
280
102
{ACAD_REACTORS
330
344
330
345
102
}
330
A0
100
AcDbEntity
  8
0
  6
Continuous
 62
     2
100
AcDbLine
 10
-74.03231094330161
 20
21.66452103586815
 30
0.0
 11
-74.03231094330161
 21
22.14440538960986
 31
0.0
  0
LINE
  5
281
102
{ACAD_REACTORS
330
344
330
345
102
}
330
A0
100
AcDbEntity
  8
0
  6
Continuous
 62
     2
100
AcDbLine
 10
-72.69638311687393
 20
21.66452103586815
 30
0.0
 11
-74.03231094330161
 21
21.66452103586815
 31
0.0
  0
LINE
  5
282
102
{ACAD_REACTORS
330
344
330
345
102
}
330
A0
100
AcDbEntity
  8
0
  6
Continuous
 62
     2
100
AcDbLine
 10
-72.69638311687393
 20
20.96650743042585
 30
0.0
 11
-72.69638311687393
 21
21.66452103586815
 31
0.0
  0
LINE
  5
283
102
{ACAD_REACTORS
330
344
330
345
102
}
330
A0
100
AcDbEntity
  8
0
  6
Continuous
 62
     2
100
AcDbLine
 10
-74.03231094330161
 20
20.96650743042585
 30
0.0
 11
-72.69638311687393
 21
20.96650743042585
 31
0.0
  0
LINE
  5
284
102
{ACAD_REACTORS
330
332
330
333
102
}
330
A0
100
AcDbEntity
  8
0
  6
Continuous
 62
     2
100
AcDbLine
 10
-77.51526563362853
 20
22.84241899505284
 30
0.0
 11
-77.51526563362853
 21
19.78860947124164
 31
0.0
  0
LINE
  5
285
102
{ACAD_REACTORS
330
332
330
333
102
}
330
A0
100
AcDbEntity
  8
0
  6
Continuous
 62
     2
100
AcDbLine
 10
-77.51526563362853
 20
19.78860947124164
 30
0.0
 11
-78.70805833579493
 21
19.78860947124164
 31
0.0
  0
LINE
  5
286
102
{ACAD_REACTORS
330
332
330
333
102
}
330
A0
100
AcDbEntity
  8
0
  6
Continuous
 62
     2
100
AcDbLine
 10
-78.70805833579493
 20
19.78860947124164
 30
0.0
 11
-78.70805833579493
 21
20.92288158008546
 31
0.0
  0
LINE
  5
287
102
{ACAD_REACTORS
330
332
330
333
102
}
330
A0
100
AcDbEntity
  8
0
  6
Continuous
 62
     2
100
AcDbLine
 10
-79.75771591370241
 20
19.78860947124164
 30
0.0
 11
-80.95050861586901
 21
19.78860947124164
 31
0.0
  0
LINE
  5
288
102
{ACAD_REACTORS
330
332
330
333
102
}
330
A0
100
AcDbEntity
  8
0
  6
Continuous
 62
     2
100
AcDbLine
 10
-80.95050861586901
 20
22.84241899505284
 30
0.0
 11
-79.75771591370241
 21
22.84241899505284
 31
0.0
  0
LINE
  5
289
102
{ACAD_REACTORS
330
332
330
333
102
}
330
A0
100
AcDbEntity
  8
0
  6
Continuous
 62
     2
100
AcDbLine
 10
-79.75771591370241
 20
22.84241899505284
 30
0.0
 11
-79.75771591370241
 21
21.77358566171824
 31
0.0
  0
LINE
  5
28A
102
{ACAD_REACTORS
330
332
330
333
102
}
330
A0
100
AcDbEntity
  8
0
  6
Continuous
 62
     2
100
AcDbLine
 10
-79.75771591370241
 20
21.77358566171824
 30
0.0
 11
-78.70805833579493
 21
21.77358566171824
 31
0.0
  0
LINE
  5
28B
102
{ACAD_REACTORS
330
340
330
341
102
}
330
A0
100
AcDbEntity
  8
0
  6
Continuous
 62
     2
100
AcDbLine
 10
-82.90668864742261
 20
22.17931314961274
 30
0.0
 11
-82.58939358588071
 21
22.17931314961274
 31
0.0
  0
LINE
  5
28C
102
{ACAD_REACTORS
330
340
330
341
102
}
330
A0
100
AcDbEntity
  8
0
  6
Continuous
 62
     2
100
AcDbLine
 10
-82.90668864742261
 20
21.47358550027053
 30
0.0
 11
-82.58939358588071
 21
21.47358550027053
 31
0.0
  0
LINE
  5
28D
102
{ACAD_REACTORS
330
340
330
341
102
}
330
A0
100
AcDbEntity
  8
0
  6
Continuous
 62
     2
100
AcDbLine
 10
-84.14719305767673
 20
22.84241899505284
 30
0.0
 11
-84.14719305767673
 21
19.78860947124164
 31
0.0
  0
LINE
  5
28E
102
{ACAD_REACTORS
330
340
330
341
102
}
330
A0
100
AcDbEntity
  8
0
  6
Continuous
 62
     2
100
AcDbLine
 10
-84.14719305767673
 20
22.84241899505284
 30
0.0
 11
-82.14792105964233
 21
22.84241899505284
 31
0.0
  0
LINE
  5
28F
102
{ACAD_REACTORS
330
340
330
341
102
}
330
A0
100
AcDbEntity
  8
0
  6
Continuous
 62
     2
100
AcDbLine
 10
-82.90668864742261
 20
20.73168771238545
 30
0.0
 11
-82.14792105964233
 21
20.73168771238545
 31
0.0
  0
LINE
  5
290
102
{ACAD_REACTORS
330
346
330
347
102
}
330
A0
100
AcDbEntity
  8
0
  6
Continuous
 62
     2
100
AcDbLine
 10
-90.24368909097342
 20
21.81414651641805
 30
0.0
 11
-90.24368909097342
 21
17.45769147370095
 31
0.0
  0
LINE
  5
291
102
{ACAD_REACTORS
330
346
330
347
102
}
330
A0
100
AcDbEntity
  8
0
  6
Continuous
 62
     2
100
AcDbLine
 10
-89.92797216789774
 20
22.12986343949424
 30
0.0
 11
-88.45213890688811
 21
22.12986343949424
 31
0.0
  0
LINE
  5
292
102
{ACAD_REACTORS
330
346
330
347
102
}
330
A0
100
AcDbEntity
  8
0
  6
Continuous
 62
     2
100
AcDbLine
 10
-88.13642198381152
 20
21.21012189735754
 30
0.0
 11
-88.13642198381152
 21
21.81414651641805
 31
0.0
  0
LINE
  5
293
102
{ACAD_REACTORS
330
346
330
347
102
}
330
A0
100
AcDbEntity
  8
0
  6
Continuous
 62
     2
100
AcDbLine
 10
-88.13642198381152
 20
17.45769147370095
 30
0.0
 11
-88.13642198381152
 21
18.98846240523255
 31
0.0
  0
LINE
  5
294
102
{ACAD_REACTORS
330
346
330
347
102
}
330
A0
100
AcDbEntity
  8
0
  6
Continuous
 62
     2
100
AcDbLine
 10
-85.04855475392742
 20
16.42941899506735
 30
0.0
 11
-90.52186684464422
 21
16.42941899506735
 31
0.0
  0
LINE
  5
295
102
{ACAD_REACTORS
330
346
330
347
102
}
330
A0
100
AcDbEntity
  8
0
  6
Continuous
 62
     2
100
AcDbLine
 10
-84.62431013854354
 20
22.41817437965085
 30
0.0
 11
-84.62431013854354
 21
16.85366361045064
 31
0.0
  0
LINE
  5
296
102
{ACAD_REACTORS
330
346
330
347
102
}
330
A0
100
AcDbEntity
  8
0
  6
Continuous
 62
     2
100
AcDbLine
 10
-90.52186684464422
 20
22.84241899503465
 30
0.0
 11
-85.04855475392742
 21
22.84241899503465
 31
0.0
  0
LINE
  5
297
102
{ACAD_REACTORS
330
346
330
347
102
}
330
A0
100
AcDbEntity
  8
0
  6
Continuous
 62
     2
100
AcDbLine
 10
-90.94611146002703
 20
22.41817437965085
 30
0.0
 11
-90.94611146002703
 21
16.85366361045064
 31
0.0
  0
LINE
  5
298
102
{ACAD_REACTORS
330
346
330
347
102
}
330
A0
100
AcDbEntity
  8
0
  6
Continuous
 62
     2
100
AcDbLine
 10
-88.45213890688811
 20
17.14197455062424
 30
0.0
 11
-89.92797216789774
 21
17.14197455062424
 31
0.0
  0
LINE
  5
299
102
{ACAD_REACTORS
330
340
330
341
102
}
330
A0
100
AcDbEntity
  8
0
  6
Continuous
 62
     2
100
AcDbLine
 10
-82.90668864742261
 20
19.78860947124164
 30
0.0
 11
-82.90668864742261
 21
20.73168771238545
 31
0.0
  0
LINE
  5
29A
102
{ACAD_REACTORS
330
340
330
341
102
}
330
A0
100
AcDbEntity
  8
0
  6
Continuous
 62
     2
100
AcDbLine
 10
-84.14719305767673
 20
19.78860947124164
 30
0.0
 11
-82.90668864742261
 21
19.78860947124164
 31
0.0
  0
LINE
  5
29B
102
{ACAD_REACTORS
330
340
330
341
102
}
330
A0
100
AcDbEntity
  8
0
  6
Continuous
 62
     2
100
AcDbLine
 10
-82.90668864742261
 20
21.47358550027053
 30
0.0
 11
-82.90668864742261
 21
22.17931314961274
 31
0.0
  0
LINE
  5
29C
102
{ACAD_REACTORS
330
332
330
333
102
}
330
A0
100
AcDbEntity
  8
0
  6
Continuous
 62
     2
100
AcDbLine
 10
-80.95050861586901
 20
22.84241899505284
 30
0.0
 11
-80.95050861586901
 21
19.78860947124164
 31
0.0
  0
LINE
  5
29D
102
{ACAD_REACTORS
330
332
330
333
102
}
330
A0
100
AcDbEntity
  8
0
  6
Continuous
 62
     2
100
AcDbLine
 10
-79.75771591370241
 20
20.92288158008546
 30
0.0
 11
-79.75771591370241
 21
19.78860947124164
 31
0.0
  0
LINE
  5
29E
102
{ACAD_REACTORS
330
332
330
333
102
}
330
A0
100
AcDbEntity
  8
0
  6
Continuous
 62
     2
100
AcDbLine
 10
-78.70805833579493
 20
20.92288158008546
 30
0.0
 11
-79.75771591370241
 21
20.92288158008546
 31
0.0
  0
LINE
  5
29F
102
{ACAD_REACTORS
330
332
330
333
102
}
330
A0
100
AcDbEntity
  8
0
  6
Continuous
 62
     2
100
AcDbLine
 10
-78.70805833579493
 20
22.84241899505284
 30
0.0
 11
-77.51526563362853
 21
22.84241899505284
 31
0.0
  0
LINE
  5
2A0
102
{ACAD_REACTORS
330
332
330
333
102
}
330
A0
100
AcDbEntity
  8
0
  6
Continuous
 62
     2
100
AcDbLine
 10
-78.70805833579493
 20
21.77358566171824
 30
0.0
 11
-78.70805833579493
 21
22.84241899505284
 31
0.0
  0
LINE
  5
2A1
102
{ACAD_REACTORS
330
344
330
345
102
}
330
A0
100
AcDbEntity
  8
0
  6
Continuous
 62
     2
100
AcDbLine
 10
-72.69638311687393
 20
22.14440538960986
 30
0.0
 11
-72.69638311687393
 21
22.84241899505284
 31
0.0
  0
LINE
  5
2A2
102
{ACAD_REACTORS
330
344
330
345
102
}
330
A0
100
AcDbEntity
  8
0
  6
Continuous
 62
     2
100
AcDbLine
 10
-75.84670284065493
 20
22.84241899505284
 30
0.0
 11
-72.69638311687393
 21
22.84241899505284
 31
0.0
  0
LINE
  5
2A3
102
{ACAD_REACTORS
330
344
330
345
102
}
330
A0
100
AcDbEntity
  8
0
  6
Continuous
 62
     2
100
AcDbLine
 10
-75.84670284065493
 20
19.78860947124164
 30
0.0
 11
-72.69638311687393
 21
19.78860947124164
 31
0.0
  0
LINE
  5
2A4
102
{ACAD_REACTORS
330
344
330
345
102
}
330
A0
100
AcDbEntity
  8
0
  6
Continuous
 62
     2
100
AcDbLine
 10
-72.69638311687393
 20
19.78860947124164
 30
0.0
 11
-72.69638311687393
 21
20.48662307668414
 31
0.0
  0
LINE
  5
2A5
102
{ACAD_REACTORS
330
344
330
345
102
}
330
A0
100
AcDbEntity
  8
0
  6
Continuous
 62
     2
100
AcDbLine
 10
-72.69638311687393
 20
20.48662307668414
 30
0.0
 11
-74.03231094330161
 21
20.48662307668414
 31
0.0
  0
LINE
  5
2A6
102
{ACAD_REACTORS
330
344
330
345
102
}
330
A0
100
AcDbEntity
  8
0
  6
Continuous
 62
     2
100
AcDbLine
 10
-74.03231094330161
 20
20.48662307668414
 30
0.0
 11
-74.03231094330161
 21
20.96650743042585
 31
0.0
  0
LINE
  5
2A7
102
{ACAD_REACTORS
330
344
330
345
102
}
330
A0
100
AcDbEntity
  8
0
  6
Continuous
 62
     2
100
AcDbLine
 10
-74.03231094330161
 20
22.14440538960986
 30
0.0
 11
-72.69638311687393
 21
22.14440538960986
 31
0.0
  0
LINE
  5
2A8
102
{ACAD_REACTORS
330
334
330
335
102
}
330
A0
100
AcDbEntity
  8
0
  6
Continuous
 62
     2
100
AcDbLine
 10
-76.51347069469313
 20
16.42941899506735
 30
0.0
 11
-76.51347069469313
 21
17.73819450527194
 31
0.0
  0
LINE
  5
2A9
102
{ACAD_REACTORS
330
334
330
335
102
}
330
A0
100
AcDbEntity
  8
0
  6
Continuous
 62
     2
100
AcDbLine
 10
-76.51347069469313
 20
17.73819450527194
 30
0.0
 11
-75.27296628444023
 21
16.42941899506735
 31
0.0
  0
LINE
  5
2AA
102
{ACAD_REACTORS
330
334
330
335
102
}
330
A0
100
AcDbEntity
  8
0
  6
Continuous
 62
     2
100
AcDbLine
 10
-74.08017358227383
 20
16.42941899506735
 30
0.0
 11
-74.08017358227383
 21
19.48322851887843
 31
0.0
  0
LINE
  5
2AB
102
{ACAD_REACTORS
330
334
330
335
102
}
330
A0
100
AcDbEntity
  8
0
  6
Continuous
 62
     2
100
AcDbLine
 10
-74.08017358227383
 20
19.48322851887843
 30
0.0
 11
-75.27296628444023
 21
19.48322851887843
 31
0.0
  0
LINE
  5
2AC
102
{ACAD_REACTORS
330
334
330
335
102
}
330
A0
100
AcDbEntity
  8
0
  6
Continuous
 62
     2
100
AcDbLine
 10
-75.27296628444023
 20
19.48322851887843
 30
0.0
 11
-75.27296628444023
 21
18.17445300867334
 31
0.0
  0
LINE
  5
2AD
102
{ACAD_REACTORS
330
334
330
335
102
}
330
A0
100
AcDbEntity
  8
0
  6
Continuous
 62
     2
100
AcDbLine
 10
-75.27296628444023
 20
18.17445300867334
 30
0.0
 11
-76.51347069469313
 21
19.48322851887843
 31
0.0
  0
LINE
  5
2AE
102
{ACAD_REACTORS
330
336
330
337
102
}
330
A0
100
AcDbEntity
  8
0
  6
Continuous
 62
     2
100
AcDbLine
 10
-71.26503187427451
 20
21.09738498144634
 30
0.0
 11
-70.02452746402051
 21
19.78860947124164
 31
0.0
  0
LINE
  5
2AF
102
{ACAD_REACTORS
330
336
330
337
102
}
330
A0
100
AcDbEntity
  8
0
  6
Continuous
 62
     2
100
AcDbLine
 10
-70.02452746402051
 20
19.78860947124164
 30
0.0
 11
-68.83173476185391
 21
19.78860947124164
 31
0.0
  0
LINE
  5
2B0
102
{ACAD_REACTORS
330
336
330
337
102
}
330
A0
100
AcDbEntity
  8
0
  6
Continuous
 62
     2
100
AcDbLine
 10
-68.83173476185391
 20
19.78860947124164
 30
0.0
 11
-68.83173476185391
 21
22.84241899505284
 31
0.0
  0
LINE
  5
2B1
102
{ACAD_REACTORS
330
336
330
337
102
}
330
A0
100
AcDbEntity
  8
0
  6
Continuous
 62
     2
100
AcDbLine
 10
-68.83173476185391
 20
22.84241899505284
 30
0.0
 11
-70.02452746402051
 21
22.84241899505284
 31
0.0
  0
LINE
  5
2B2
102
{ACAD_REACTORS
330
336
330
337
102
}
330
A0
100
AcDbEntity
  8
0
  6
Continuous
 62
     2
100
AcDbLine
 10
-70.02452746402051
 20
21.53364348484766
 30
0.0
 11
-71.26503187427451
 21
22.84241899505284
 31
0.0
  0
LINE
  5
2B3
102
{ACAD_REACTORS
330
336
330
337
102
}
330
A0
100
AcDbEntity
  8
0
  6
Continuous
 62
     2
100
AcDbLine
 10
-72.45782457644103
 20
19.78860947124164
 30
0.0
 11
-71.26503187427451
 21
19.78860947124164
 31
0.0
  0
LINE
  5
2B4
102
{ACAD_REACTORS
330
338
330
339
102
}
330
A0
100
AcDbEntity
  8
0
  6
Continuous
 62
     2
100
AcDbLine
 10
-73.93703845801363
 20
19.48322851887843
 30
0.0
 11
-73.93703845801363
 21
18.69796321275484
 31
0.0
  0
LINE
  5
2B5
102
{ACAD_REACTORS
330
338
330
339
102
}
330
A0
100
AcDbEntity
  8
0
  6
Continuous
 62
     2
100
AcDbLine
 10
-73.12593942053903
 20
18.69796321275484
 30
0.0
 11
-73.12593942053903
 21
16.42941899506735
 31
0.0
  0
LINE
  5
2B6
102
{ACAD_REACTORS
330
338
330
339
102
}
330
A0
100
AcDbEntity
  8
0
  6
Continuous
 62
     2
100
AcDbLine
 10
-73.12593942053903
 20
16.42941899506735
 30
0.0
 11
-71.93314671837251
 21
16.42941899506735
 31
0.0
  0
LINE
  5
2B7
102
{ACAD_REACTORS
330
33A
330
33B
102
}
330
A0
100
AcDbEntity
  8
0
  6
Continuous
 62
     2
100
AcDbLine
 10
-68.98362022495303
 20
16.42941899506735
 30
0.0
 11
-69.19510027842881
 21
16.97037953928523
 31
0.0
  0
LINE
  5
2B8
102
{ACAD_REACTORS
330
33A
330
33B
102
}
330
A0
100
AcDbEntity
  8
0
  6
Continuous
 62
     2
100
AcDbLine
 10
-69.14106886163941
 20
19.48322851887843
 30
0.0
 11
-67.74311581469911
 21
16.42941899506735
 31
0.0
  0
LINE
  5
2B9
102
{ACAD_REACTORS
330
33A
330
33B
102
}
330
A0
100
AcDbEntity
  8
0
  6
Continuous
 62
     2
100
AcDbLine
 10
-70.38157327189211
 20
19.48322851887843
 30
0.0
 11
-69.14106886163941
 21
19.48322851887843
 31
0.0
  0
LINE
  5
2BA
102
{ACAD_REACTORS
330
33A
330
33B
102
}
330
A0
100
AcDbEntity
  8
0
  6
Continuous
 62
     2
100
AcDbLine
 10
-71.77952631883142
 20
16.42941899506735
 30
0.0
 11
-70.53902190857843
 21
16.42941899506735
 31
0.0
  0
LINE
  5
2BB
102
{ACAD_REACTORS
330
33A
330
33B
102
}
330
A0
100
AcDbEntity
  8
0
  6
Continuous
 62
     2
100
AcDbLine
 10
-70.06148630395762
 20
17.65094280459184
 30
0.0
 11
-69.46115582957512
 21
17.65094280459184
 31
0.0
  0
LINE
  5
2BC
102
{ACAD_REACTORS
330
33A
330
33B
102
}
330
A0
100
AcDbEntity
  8
0
  6
Continuous
 62
     2
100
AcDbLine
 10
-69.46115582957512
 20
17.65094280459184
 30
0.0
 11
-69.76132106676522
 21
18.41875777057854
 31
0.0
  0
LINE
  5
2BD
102
{ACAD_REACTORS
330
33C
330
33D
102
}
330
A0
100
AcDbEntity
  8
0
  6
Continuous
 62
     2
100
AcDbLine
 10
-67.35267181116711
 20
19.78860947124164
 30
0.0
 11
-68.59317622142001
 21
19.78860947124164
 31
0.0
  0
LINE
  5
2BE
102
{ACAD_REACTORS
330
33E
330
33F
102
}
330
A0
100
AcDbEntity
  8
0
  6
Continuous
 62
     2
100
AcDbLine
 10
-65.83066832320202
 20
19.78860947124164
 30
0.0
 11
-67.23339254095023
 21
19.78860947124164
 31
0.0
  0
LINE
  5
2BF
102
{ACAD_REACTORS
330
33E
330
33F
102
}
330
A0
100
AcDbEntity
  8
0
  6
Continuous
 62
     2
100
AcDbLine
 10
-65.83066832320202
 20
19.78860947124164
 30
0.0
 11
-65.13407738513632
 21
20.57634125653536
 31
0.0
  0
LINE
  5
2C0
102
{ACAD_REACTORS
330
33E
330
33F
102
}
330
A0
100
AcDbEntity
  8
0
  6
Continuous
 62
     2
100
AcDbLine
 10
-64.53290986324353
 20
22.84241899505284
 30
0.0
 11
-63.13018564549631
 21
22.84241899505284
 31
0.0
  0
LINE
  5
2C1
102
{ACAD_REACTORS
330
33E
330
33F
102
}
330
A0
100
AcDbEntity
  8
0
  6
Continuous
 62
     2
100
AcDbLine
 10
-67.13796912477741
 20
22.84241899505284
 30
0.0
 11
-65.83543949400993
 21
21.36946846501664
 31
0.0
  0
LINE
  5
2C2
102
{ACAD_REACTORS
330
33E
330
33F
102
}
330
A0
100
AcDbEntity
  8
0
  6
Continuous
 62
     2
100
AcDbLine
 10
-67.23339254095023
 20
19.78860947124164
 30
0.0
 11
-65.83543949400993
 21
21.36946846501664
 31
0.0
  0
LINE
  5
2C3
102
{ACAD_REACTORS
330
348
330
349
102
}
330
A0
100
AcDbEntity
  8
0
  6
Continuous
 62
     2
100
AcDbLine
 10
-65.37263592557031
 20
17.47643940323096
 30
0.0
 11
-65.37263592557031
 21
16.60392239642764
 31
0.0
  0
LINE
  5
2C4
102
{ACAD_REACTORS
330
348
330
349
102
}
330
A0
100
AcDbEntity
  8
0
  6
Continuous
 62
     2
100
AcDbLine
 10
-66.14229326853172
 20
18.69796321275484
 30
0.0
 11
-65.03865396896362
 21
18.69796321275484
 31
0.0
  0
LINE
  5
2C5
102
{ACAD_REACTORS
330
34A
330
34B
102
}
330
A0
100
AcDbEntity
  8
0
  6
Continuous
 62
     2
100
AcDbLine
 10
-81.47533740482223
 20
17.47643940323144
 30
0.0
 11
-81.47533740482223
 21
16.60392239642823
 31
0.0
  0
LINE
  5
2C6
102
{ACAD_REACTORS
330
34A
330
34B
102
}
330
A0
100
AcDbEntity
  8
0
  6
Continuous
 62
     2
100
AcDbLine
 10
-81.47533740482223
 20
18.43620811071435
 30
0.0
 11
-81.47533740482223
 21
19.30872511751764
 31
0.0
  0
LINE
  5
2C7
330
A0
100
AcDbEntity
  8
1
  6
Continuous
 62
     7
100
AcDbLine
 10
34.36203818016168
 20
17.63591899505104
 30
0.0
 11
-58.78276634658971
 21
17.63591899505104
 31
0.0
  0
LINE
  5
2C8
330
A0
100
AcDbEntity
  8
1
  6
Continuous
 62
     6
100
AcDbLine
 10
-164.1827663465896
 20
9.13591899505104
 30
0.0
 11
-209.1379618198396
 21
9.13591899505104
 31
0.0
  0
LINE
  5
2C9
330
A0
100
AcDbEntity
  8
1
  6
Continuous
 62
     7
100
AcDbLine
 10
25.44362989848287
 20
34.63591899505104
 30
0.0
 11
25.44362989848287
 21
26.13591899505104
 31
0.0
  0
LINE
  5
2CA
330
A0
100
AcDbEntity
  8
1
  6
Continuous
 62
     7
100
AcDbLine
 10
-1.05637010151673
 20
34.63591899505104
 30
0.0
 11
-1.05637010151673
 21
26.13591899505104
 31
0.0
  0
LINE
  5
2CB
330
A0
100
AcDbEntity
  8
1
  6
Continuous
 62
     7
100
AcDbLine
 10
-58.78276634658971
 20
26.13591899505104
 30
0.0
 11
-58.78276634658971
 21
34.63591899505104
 31
0.0
  0
LINE
  5
2CC
330
A0
100
AcDbEntity
  8
1
  6
Continuous
 62
     7
100
AcDbLine
 10
-95.18276634658963
 20
26.13591899505104
 30
0.0
 11
-95.18276634658963
 21
34.63591899505104
 31
0.0
  0
LINE
  5
2CD
330
A0
100
AcDbEntity
  8
1
  6
Continuous
 62
     6
100
AcDbLine
 10
-58.78276634658971
 20
26.13591899505104
 30
0.0
 11
34.36203818016207
 21
26.13591899505104
 31
0.0
  0
LINE
  5
2CE
330
A0
100
AcDbEntity
  8
1
  6
Continuous
 62
     7
100
AcDbLine
 10
-30.88276634658962
 20
17.63591899505096
 30
0.0
 11
-30.88276634658962
 21
26.13591899505104
 31
0.0
  0
LINE
  5
2CF
330
A0
100
AcDbEntity
  8
1
  6
PHANTOM
 62
     2
100
AcDbLine
 10
-79.69611146002703
 20
30.26091899505096
 30
0.0
 11
-85.19611146002703
 21
30.26091899505096
 31
0.0
  0
LINE
  5
2D0
330
A0
100
AcDbEntity
  8
1
  6
PHANTOM
 62
     2
100
AcDbLine
 10
-82.44611146002703
 20
33.01091899505096
 30
0.0
 11
-82.44611146002703
 21
27.51091899505096
 31
0.0
  0
LINE
  5
2D1
330
A0
100
AcDbEntity
  8
1
  6
DOT_CENTER
 62
     2
100
AcDbLine
 10
-91.19611146002703
 20
30.26091899505096
 30
0.0
 11
-85.69611146002703
 21
30.26091899505096
 31
0.0
  0
ARC
  5
2D2
102
{ACAD_REACTORS
330
34A
330
34B
102
}
330
A0
100
AcDbEntity
  8
0
  6
Continuous
 62
     2
100
AcDbCircle
 10
-82.81126532194003
 20
14.64364281171675
 30
0.0
 40
4.852596863498063
100
AcDbArc
 50
74.02000874164737
 51
84.84185523037506
  0
ARC
  5
2D3
102
{ACAD_REACTORS
330
34A
330
34B
102
}
330
A0
100
AcDbEntity
  8
0
  6
Continuous
 62
     2
100
AcDbCircle
 10
-82.23522471318631
 20
17.79940316760104
 30
0.0
 40
0.9059297849853228
100
AcDbArc
 50
71.55192388185348
 51
113.3722778881288
  0
ARC
  5
2D4
102
{ACAD_REACTORS
330
34A
330
34B
102
}
330
A0
100
AcDbEntity
  8
0
  6
Continuous
 62
     2
100
AcDbCircle
 10
-82.39166474588833
 20
17.75125232763415
 30
0.0
 40
0.5115800601948034
100
AcDbArc
 50
208.5214732576956
 51
246.6277221118275
  0
ARC
  5
2D5
102
{ACAD_REACTORS
330
34A
330
34B
102
}
330
A0
100
AcDbEntity
  8
0
  6
Continuous
 62
     2
100
AcDbCircle
 10
-82.23522471318631
 20
18.11324434634415
 30
0.0
 40
0.9059297849849257
100
AcDbArc
 50
246.6277221118712
 51
288.4480761181583
  0
ARC
  5
2D6
102
{ACAD_REACTORS
330
34A
330
34B
102
}
330
A0
100
AcDbEntity
  8
0
  6
Continuous
 62
     2
100
AcDbCircle
 10
-82.6533924468471
 20
19.36679012238133
 30
0.0
 40
2.22738400897274
100
AcDbArc
 50
288.4480761181328
 51
301.9309089499593
  0
ARC
  5
2D7
102
{ACAD_REACTORS
330
346
330
347
102
}
330
A0
100
AcDbEntity
  8
0
  6
Continuous
 62
     2
100
AcDbCircle
 10
-87.87846617945391
 20
20.09929215129534
 30
0.0
 40
0.911848150144459
100
AcDbArc
 50
295.3740086781764
 51
64.62599132180755
  0
ARC
  5
2D8
102
{ACAD_REACTORS
330
346
330
347
102
}
330
A0
100
AcDbEntity
  8
0
  6
Continuous
 62
     2
100
AcDbCircle
 10
-87.35242348136603
 20
21.81396903976994
 30
0.0
 40
0.3157169230760746
100
AcDbArc
 50
90.18896704254594
 51
180.0
  0
ARC
  5
2D9
102
{ACAD_REACTORS
330
348
330
349
102
}
330
A0
100
AcDbEntity
  8
0
  6
Continuous
 62
     2
100
AcDbCircle
 10
-66.14229326853172
 20
17.74344020592875
 30
0.0
 40
0.9545230068260899
100
AcDbArc
 50
90.0
 51
109.3371432194321
  0
ARC
  5
2DA
102
{ACAD_REACTORS
330
348
330
349
102
}
330
A0
100
AcDbEntity
  8
0
  6
Continuous
 62
     2
100
AcDbCircle
 10
-65.91160600855403
 20
17.95632375697264
 30
0.0
 40
0.9410597353348907
100
AcDbArc
 50
151.4785267423626
 51
208.5214732576695
  0
ARC
  5
2DB
102
{ACAD_REACTORS
330
348
330
349
102
}
330
A0
100
AcDbEntity
  8
0
  6
Continuous
 62
     2
100
AcDbCircle
 10
-66.13252323393232
 20
18.11324434634415
 30
0.0
 40
0.9059297849852865
100
AcDbArc
 50
246.6277221118184
 51
288.4480761180817
  0
ARC
  5
2DC
102
{ACAD_REACTORS
330
348
330
349
102
}
330
A0
100
AcDbEntity
  8
0
  6
Continuous
 62
     2
100
AcDbCircle
 10
-66.55069096759422
 20
19.36679012238074
 30
0.0
 40
2.227384008972746
100
AcDbArc
 50
288.4480761181335
 51
301.9309089499397
  0
ARC
  5
2DD
102
{ACAD_REACTORS
330
348
330
349
102
}
330
A0
100
AcDbEntity
  8
0
  6
Continuous
 62
     2
100
AcDbCircle
 10
-66.70856384268703
 20
21.26900470222904
 30
0.0
 40
4.852596863498825
100
AcDbArc
 50
275.1581447696364
 51
285.9799912583387
  0
ARC
  5
2DE
102
{ACAD_REACTORS
330
348
330
349
102
}
330
A0
100
AcDbEntity
  8
0
  6
Continuous
 62
     2
100
AcDbCircle
 10
-66.41970774795121
 20
18.06911411900745
 30
0.0
 40
1.639695123940448
100
AcDbArc
 50
195.0618917771012
 51
275.1581447696762
  0
ARC
  5
2DF
102
{ACAD_REACTORS
330
340
330
341
102
}
330
A0
100
AcDbEntity
  8
0
  6
Continuous
 62
     2
100
AcDbCircle
 10
-82.14792105964233
 20
21.78705335371916
 30
0.0
 40
1.055365641333708
100
AcDbArc
 50
270.0
 51
90.0
  0
ARC
  5
2E0
102
{ACAD_REACTORS
330
346
330
347
102
}
330
A0
100
AcDbEntity
  8
0
  6
Continuous
 62
     2
100
AcDbCircle
 10
-89.92797216789774
 20
17.45769147370095
 30
0.0
 40
0.3157169230756836
100
AcDbArc
 50
180.0
 51
270.0
  0
ARC
  5
2E1
102
{ACAD_REACTORS
330
346
330
347
102
}
330
A0
100
AcDbEntity
  8
0
  6
Continuous
 62
     2
100
AcDbCircle
 10
-88.45213890688811
 20
21.81414651641805
 30
0.0
 40
0.315716923076593
100
AcDbArc
 50
0.0
 51
90.0
  0
ARC
  5
2E2
102
{ACAD_REACTORS
330
346
330
347
102
}
330
A0
100
AcDbEntity
  8
0
  6
Continuous
 62
     2
100
AcDbCircle
 10
-88.45213890688811
 20
21.21012189735754
 30
0.0
 40
0.3157169230761203
100
AcDbArc
 50
295.1944106485397
 51
0.0
  0
ARC
  5
2E3
102
{ACAD_REACTORS
330
346
330
347
102
}
330
A0
100
AcDbEntity
  8
0
  6
Continuous
 62
     2
100
AcDbCircle
 10
-88.45213890688811
 20
17.45769147370095
 30
0.0
 40
0.3157169230767103
100
AcDbArc
 50
270.0
 51
0.0
  0
ARC
  5
2E4
102
{ACAD_REACTORS
330
346
330
347
102
}
330
A0
100
AcDbEntity
  8
0
  6
Continuous
 62
     2
100
AcDbCircle
 10
-90.52186684464422
 20
22.41817437965085
 30
0.0
 40
0.4242446153837989
100
AcDbArc
 50
90.0
 51
180.0
  0
ARC
  5
2E5
102
{ACAD_REACTORS
330
346
330
347
102
}
330
A0
100
AcDbEntity
  8
0
  6
Continuous
 62
     2
100
AcDbCircle
 10
-85.04855475392742
 20
22.41817437965085
 30
0.0
 40
0.4242446153838841
100
AcDbArc
 50
0.0
 51
90.0
  0
ARC
  5
2E6
102
{ACAD_REACTORS
330
346
330
347
102
}
330
A0
100
AcDbEntity
  8
0
  6
Continuous
 62
     2
100
AcDbCircle
 10
-85.04855475392742
 20
16.85366361045064
 30
0.0
 40
0.4242446153832873
100
AcDbArc
 50
270.0
 51
0.0
  0
ARC
  5
2E7
102
{ACAD_REACTORS
330
344
330
345
102
}
330
A0
100
AcDbEntity
  8
0
  6
Continuous
 62
     2
100
AcDbCircle
 10
-75.83017086683591
 20
21.31551423314696
 30
0.0
 40
0.7717997786796417
100
AcDbArc
 50
321.8795802028433
 51
38.12041979715956
  0
ARC
  5
2E8
102
{ACAD_REACTORS
330
344
330
345
102
}
330
A0
100
AcDbEntity
  8
0
  6
Continuous
 62
     2
100
AcDbCircle
 10
-75.63043083048973
 20
21.15878305502653
 30
0.0
 40
0.5179085730134372
100
AcDbArc
 50
218.1204197971511
 51
321.8795802028566
  0
ARC
  5
2E9
102
{ACAD_REACTORS
330
342
330
343
102
}
330
A0
100
AcDbEntity
  8
0
  6
Continuous
 62
     2
100
AcDbCircle
 10
-79.31043841944992
 20
17.95632375697264
 30
0.0
 40
1.458034083652003
100
AcDbArc
 50
297.548148175701
 51
62.45185182429896
  0
ARC
  5
2EA
102
{ACAD_REACTORS
330
342
330
343
102
}
330
A0
100
AcDbEntity
  8
0
  6
Continuous
 62
     2
100
AcDbCircle
 10
-79.87231820311652
 20
17.95632375697264
 30
0.0
 40
1.45803408365149
100
AcDbArc
 50
117.5481481756624
 51
242.4518518243375
  0
ARC
  5
2EB
102
{ACAD_REACTORS
330
342
330
343
102
}
330
A0
100
AcDbEntity
  8
0
  6
Continuous
 62
     2
100
AcDbCircle
 10
-79.59137831128322
 20
17.41774874666984
 30
0.0
 40
2.065479772208574
100
AcDbArc
 50
62.45185182430646
 51
117.5481481756663
  0
ARC
  5
2EC
102
{ACAD_REACTORS
330
342
330
343
102
}
330
A0
100
AcDbEntity
  8
0
  6
Continuous
 62
     2
100
AcDbCircle
 10
-79.59137831128322
 20
18.49489876727594
 30
0.0
 40
2.065479772208505
100
AcDbArc
 50
242.4518518243401
 51
297.5481481756871
  0
ARC
  5
2ED
102
{ACAD_REACTORS
330
344
330
345
102
}
330
A0
100
AcDbEntity
  8
0
  6
Continuous
 62
     2
100
AcDbCircle
 10
-75.43069079414343
 20
21.31551423314696
 30
0.0
 40
0.7717997786796724
100
AcDbArc
 50
141.8795802028404
 51
218.1204197971566
  0
ARC
  5
2EE
102
{ACAD_REACTORS
330
344
330
345
102
}
330
A0
100
AcDbEntity
  8
0
  6
Continuous
 62
     2
100
AcDbCircle
 10
-75.63043083048973
 20
21.47224541126744
 30
0.0
 40
0.5179085730135266
100
AcDbArc
 50
38.12041979714334
 51
141.8795802028489
  0
ARC
  5
2EF
102
{ACAD_REACTORS
330
346
330
347
102
}
330
A0
100
AcDbEntity
  8
0
  6
Continuous
 62
     2
100
AcDbCircle
 10
-90.52186684464422
 20
16.85366361045064
 30
0.0
 40
0.4242446153828041
100
AcDbArc
 50
180.0
 51
270.0
  0
ARC
  5
2F0
102
{ACAD_REACTORS
330
346
330
347
102
}
330
A0
100
AcDbEntity
  8
0
  6
Continuous
 62
     2
100
AcDbCircle
 10
-88.45213890688811
 20
18.98846240523255
 30
0.0
 40
0.315716923076593
100
AcDbArc
 50
0.0
 51
64.80558935146027
  0
ARC
  5
2F1
102
{ACAD_REACTORS
330
346
330
347
102
}
330
A0
100
AcDbEntity
  8
0
  6
Continuous
 62
     2
100
AcDbCircle
 10
-87.92955445931312
 20
20.09929215129534
 30
0.0
 40
0.9118975235576178
100
AcDbArc
 50
115.1944106485281
 51
244.8055893514878
  0
ARC
  5
2F2
102
{ACAD_REACTORS
330
346
330
347
102
}
330
A0
100
AcDbEntity
  8
0
  6
Continuous
 62
     2
100
AcDbCircle
 10
-89.92797216789774
 20
21.81414651641805
 30
0.0
 40
0.3157169230761916
100
AcDbArc
 50
90.0
 51
180.0
  0
ARC
  5
2F3
102
{ACAD_REACTORS
330
340
330
341
102
}
330
A0
100
AcDbEntity
  8
0
  6
Continuous
 62
     2
100
AcDbCircle
 10
-82.58939358588071
 20
21.82644932494165
 30
0.0
 40
0.3528638246711182
100
AcDbArc
 50
270.0
 51
90.0
  0
ARC
  5
2F4
102
{ACAD_REACTORS
330
344
330
345
102
}
330
A0
100
AcDbEntity
  8
0
  6
Continuous
 62
     2
100
AcDbCircle
 10
-75.84670284065493
 20
21.31551423314696
 30
0.0
 40
1.526904761905879
100
AcDbArc
 50
90.0
 51
270.0
  0
ARC
  5
2F5
102
{ACAD_REACTORS
330
348
330
349
102
}
330
A0
100
AcDbEntity
  8
0
  6
Continuous
 62
     2
100
AcDbCircle
 10
-66.41970774795121
 20
17.84353339493774
 30
0.0
 40
1.639695123940211
100
AcDbArc
 50
90.0
 51
164.9381082228951
  0
ARC
  5
2F6
102
{ACAD_REACTORS
330
348
330
349
102
}
330
A0
100
AcDbEntity
  8
0
  6
Continuous
 62
     2
100
AcDbCircle
 10
-66.83883559141282
 20
17.95632375697264
 30
0.0
 40
1.205656168393001
100
AcDbArc
 50
164.938108222903
 51
195.0618917770962
  0
ARC
  5
2F7
102
{ACAD_REACTORS
330
348
330
349
102
}
330
A0
100
AcDbEntity
  8
0
  6
Continuous
 62
     2
100
AcDbCircle
 10
-66.28896326663542
 20
17.75125232763415
 30
0.0
 40
0.5115800601960199
100
AcDbArc
 50
208.5214732576863
 51
246.6277221118451
  0
ARC
  5
2F8
102
{ACAD_REACTORS
330
348
330
349
102
}
330
A0
100
AcDbEntity
  8
0
  6
Continuous
 62
     2
100
AcDbCircle
 10
-66.28896326663542
 20
18.16139518631164
 30
0.0
 40
0.5115800601944076
100
AcDbArc
 50
109.3371432194856
 51
151.4785267424228
  0
ARC
  5
2F9
102
{ACAD_REACTORS
330
346
330
347
102
}
330
A0
100
AcDbEntity
  8
0
  6
Continuous
 62
     2
100
AcDbCircle
 10
-87.35242348136603
 20
18.40829914463185
 30
0.0
 40
0.315716923076792
100
AcDbArc
 50
180.0
 51
269.8110329574542
  0
ARC
  5
2FA
102
{ACAD_REACTORS
330
346
330
347
102
}
330
A0
100
AcDbEntity
  8
0
  6
Continuous
 62
     2
100
AcDbCircle
 10
-87.34680734605601
 20
20.11113409220084
 30
0.0
 40
2.018561131933266
100
AcDbArc
 50
269.8110329575858
 51
90.18896704241416
  0
ARC
  5
2FB
102
{ACAD_REACTORS
330
346
330
347
102
}
330
A0
100
AcDbEntity
  8
0
  6
Continuous
 62
     2
100
AcDbCircle
 10
-87.35242348136603
 20
21.20843375126316
 30
0.0
 40
0.315716923076792
100
AcDbArc
 50
180.0
 51
244.6259913216484
  0
ARC
  5
2FC
102
{ACAD_REACTORS
330
346
330
347
102
}
330
A0
100
AcDbEntity
  8
0
  6
Continuous
 62
     2
100
AcDbCircle
 10
-87.35242348136603
 20
18.99015055132693
 30
0.0
 40
0.3157169230765328
100
AcDbArc
 50
115.3740086783519
 51
180.0
  0
ARC
  5
2FD
102
{ACAD_REACTORS
330
34A
330
34B
102
}
330
A0
100
AcDbEntity
  8
0
  6
Continuous
 62
     2
100
AcDbCircle
 10
-82.52240922720412
 20
17.84353339493774
 30
0.0
 40
1.639695123940503
100
AcDbArc
 50
84.84185523036234
 51
164.9381082228866
  0
ARC
  5
2FE
102
{ACAD_REACTORS
330
34A
330
34B
102
}
330
A0
100
AcDbEntity
  8
0
  6
Continuous
 62
     2
100
AcDbCircle
 10
-82.94153707066693
 20
17.95632375697264
 30
0.0
 40
1.205656168390943
100
AcDbArc
 50
164.9381082228766
 51
195.061891777095
  0
ARC
  5
2FF
102
{ACAD_REACTORS
330
34A
330
34B
102
}
330
A0
100
AcDbEntity
  8
0
  6
Continuous
 62
     2
100
AcDbCircle
 10
-82.52240922720412
 20
18.06911411900745
 30
0.0
 40
1.639695123939386
100
AcDbArc
 50
195.0618917770894
 51
275.1581447696395
  0
ARC
  5
300
102
{ACAD_REACTORS
330
34A
330
34B
102
}
330
A0
100
AcDbEntity
  8
0
  6
Continuous
 62
     2
100
AcDbCircle
 10
-82.81126532194003
 20
21.26900470222904
 30
0.0
 40
4.852596863498134
100
AcDbArc
 50
275.1581447696249
 51
285.9799912583529
  0
ARC
  5
301
102
{ACAD_REACTORS
330
34A
330
34B
102
}
330
A0
100
AcDbEntity
  8
0
  6
Continuous
 62
     2
100
AcDbCircle
 10
-82.01430748780803
 20
17.95632375697264
 30
0.0
 40
0.9410597353332545
100
AcDbArc
 50
151.4785267422669
 51
208.5214732577059
  0
ARC
  5
302
102
{ACAD_REACTORS
330
34A
330
34B
102
}
330
A0
100
AcDbEntity
  8
0
  6
Continuous
 62
     2
100
AcDbCircle
 10
-82.39166474588833
 20
18.16139518631164
 30
0.0
 40
0.5115800601948779
100
AcDbArc
 50
113.3722778881992
 51
151.4785267423044
  0
ARC
  5
303
102
{ACAD_REACTORS
330
34A
330
34B
102
}
330
A0
100
AcDbEntity
  8
0
  6
Continuous
 62
     2
100
AcDbCircle
 10
-82.6533924468471
 20
16.54585739156445
 30
0.0
 40
2.227384008973484
100
AcDbArc
 50
58.06909105004083
 51
71.55192388186722
  0
ARC
  5
304
102
{ACAD_REACTORS
330
342
330
343
102
}
330
A0
100
AcDbEntity
  8
0
  6
Continuous
 62
     2
100
AcDbCircle
 10
-79.59137831128322
 20
18.11305493509315
 30
0.0
 40
0.5179085730132976
100
AcDbArc
 50
38.12041979714672
 51
141.8795802028591
  0
ARC
  5
305
102
{ACAD_REACTORS
330
342
330
343
102
}
330
A0
100
AcDbEntity
  8
0
  6
Continuous
 62
     2
100
AcDbCircle
 10
-79.39163827493712
 20
17.95632375697264
 30
0.0
 40
0.771799778679461
100
AcDbArc
 50
141.8795802028365
 51
218.1204197971687
  0
ARC
  5
306
102
{ACAD_REACTORS
330
342
330
343
102
}
330
A0
100
AcDbEntity
  8
0
  6
Continuous
 62
     2
100
AcDbCircle
 10
-79.59137831128322
 20
17.79959257885264
 30
0.0
 40
0.5179085730137332
100
AcDbArc
 50
218.1204197971929
 51
321.8795802028013
  0
ARC
  5
307
102
{ACAD_REACTORS
330
342
330
343
102
}
330
A0
100
AcDbEntity
  8
0
  6
Continuous
 62
     2
100
AcDbCircle
 10
-79.79111834762963
 20
17.95632375697264
 30
0.0
 40
0.7717997786796947
100
AcDbArc
 50
321.8795802028417
 51
38.12041979715308
  0
CIRCLE
  5
308
330
A0
100
AcDbEntity
  8
1
  6
Continuous
 62
     2
100
AcDbCircle
 10
-82.44611146002703
 20
30.26091899505096
 30
0.0
 40
2.5
  0
CIRCLE
  5
309
330
A0
100
AcDbEntity
  8
1
  6
Continuous
 62
     2
100
AcDbCircle
 10
-82.44611146002703
 20
30.26091899505096
 30
0.0
 40
1.249999999999915
  0
CIRCLE
  5
30A
102
{ACAD_REACTORS
330
346
330
347
102
}
330
A0
100
AcDbEntity
  8
0
  6
Continuous
 62
     2
100
AcDbCircle
 10
-87.90228119412672
 20
20.09929215129534
 30
0.0
 40
0.4709789327785074
  0
MTEXT
  5
30B
330
A0
100
AcDbEntity
  8
1
 62
     3
100
AcDbMText
 10
-252.6328940337678
 20
195.9272271503498
 30
0.0
 40
1.8
 41
0.0
 71
     7
 72
     1
  3
Weitergabe sowie Vervielfältigung dieses Dokuments, Verwertung und \PMitteilung seines Inhalts sind verboten, soweit nicht ausdrücklich gestattet. \PZuwiderhandlungen verpflichten zu Schadenersatz. Alle Rechte für den Fall\Pder Patent-, Gebrauchsmus
  1
ter- oder Designeintragung vorbehalten.
  7
CONVERTER_11
 73
     1
 44
0.99639855942377
  0
MTEXT
  5
30C
330
A0
100
AcDbEntity
  8
1
 62
     3
100
AcDbMText
 10
-69.77978419497973
 20
195.9272271503498
 30
0.0
 40
1.8
 41
0.0
 71
     7
 72
     1
  3
Transfer or duplication of this document as well as the utilisation or\Pcommunication of its content are not permitted unless express consent\Pis granted. Violations give rise to claims for damages. All rights reserved\Pin case of patent, utility mo
  1
del or design patent registrations.
  7
CONVERTER_11
 73
     1
 44
0.99639855942377
  0
TEXT
  5
30D
330
A0
100
AcDbEntity
  8
1
 62
     2
100
AcDbText
 10
-75.98276634658981
 20
10.37690178005943
 30
0.0
 40
1.8
  1
of
 41
0.9
  7
CONVERTER_11
100
AcDbText
  0
TEXT
  5
30E
330
A0
100
AcDbEntity
  8
1
 62
     2
100
AcDbText
 10
-94.18276634658963
 20
10.37690178005937
 30
0.0
 40
1.8
  1
page
 41
0.9
  7
CONVERTER_11
100
AcDbText
  0
TEXT
  5
30F
330
A0
100
AcDbEntity
  8
1
 62
     2
100
AcDbText
 10
-85.53650137624763
 20
10.33667034124903
 30
0.0
 40
1.8
  1
1
 41
0.9
  7
CONVERTER_11
100
AcDbText
  0
TEXT
  5
310
330
A0
100
AcDbEntity
  8
1
 62
     2
100
AcDbText
 10
-70.74745753677612
 20
10.38591899505093
 30
0.0
 40
1.8
  1
1
 41
0.9
  7
CONVERTER_11
100
AcDbText
  0
MTEXT
  5
312
330
A0
100
AcDbEntity
  8
1
 62
     7
100
AcDbMText
 10
-12.21036408321413
 20
12.38591899505127
 30
0.0
 40
3.0
 41
0.0
 71
     5
 72
     1
  1
FBS  3-8
  7
CONVERTER_12
 73
     1
 44
1.20048019207683
  0
MTEXT
  5
313
330
A0
100
AcDbEntity
  8
1
 62
     2
100
AcDbMText
 10
-57.78276634658971
 20
16.63591899505104
 30
0.0
 40
1.8
 41
0.0
 71
     1
 72
     1
  1
description
  7
CONVERTER_11
 73
     1
 44
1.20048019207683
  0
MTEXT
  5
314
330
A0
100
AcDbEntity
  8
1
 62
     3
100
AcDbMText
 10
-68.98276634658973
 20
30.26091899505104
 30
0.0
 40
2.5
 41
0.0
 71
     5
 72
     1
  1
DIN A4
  7
CONVERTER_11
 73
     1
 44
1.20048019207683
  0
MTEXT
  5
315
330
A0
100
AcDbEntity
  8
1
 62
     7
100
AcDbMText
 10
-255.1379618198387
 20
31.63591899505104
 30
0.0
 40
3.5
 41
0.0
 71
     5
 72
     1
  1
D
  7
CONVERTER_11
 73
     1
 44
1.20048019207683
  0
MTEXT
  5
316
330
A0
100
AcDbEntity
  8
1
 62
     7
100
AcDbMText
 10
-255.1379618198387
 20
84.13591899505104
 30
0.0
 40
3.5
 41
0.0
 71
     5
 72
     1
  1
C
  7
CONVERTER_11
 73
     1
 44
1.20048019207683
  0
MTEXT
  5
317
330
A0
100
AcDbEntity
  8
1
 62
     7
100
AcDbMText
 10
-255.1379618198387
 20
134.135918995051
 30
0.0
 40
3.5
 41
0.0
 71
     5
 72
     1
  1
B
  7
CONVERTER_11
 73
     1
 44
1.20048019207683
  0
MTEXT
  5
318
330
A0
100
AcDbEntity
  8
1
 62
     7
100
AcDbMText
 10
-255.1379618198387
 20
186.635918995051
 30
0.0
 40
3.5
 41
0.0
 71
     5
 72
     1
  1
A
  7
CONVERTER_11
 73
     1
 44
1.20048019207683
  0
MTEXT
  5
319
330
A0
100
AcDbEntity
  8
1
 62
     7
100
AcDbMText
 10
15.11203818015957
 20
6.63591899505093
 30
0.0
 40
3.5
 41
0.0
 71
     5
 72
     1
  1
6
  7
CONVERTER_11
 73
     1
 44
1.20048019207683
  0
MTEXT
  5
31A
330
A0
100
AcDbEntity
  8
1
 62
     7
100
AcDbMText
 10
-34.13796181983963
 20
6.63591899505093
 30
0.0
 40
3.5
 41
0.0
 71
     5
 72
     1
  1
5
  7
CONVERTER_11
 73
     1
 44
1.20048019207683
  0
MTEXT
  5
31B
330
A0
100
AcDbEntity
  8
1
 62
     7
100
AcDbMText
 10
-84.13796181983972
 20
6.63591899505093
 30
0.0
 40
3.5
 41
0.0
 71
     5
 72
     1
  1
4
  7
CONVERTER_11
 73
     1
 44
1.20048019207683
  0
MTEXT
  5
31C
330
A0
100
AcDbEntity
  8
1
 62
     7
100
AcDbMText
 10
-134.1379618198396
 20
6.63591899505093
 30
0.0
 40
3.5
 41
0.0
 71
     5
 72
     1
  1
3
  7
CONVERTER_11
 73
     1
 44
1.20048019207683
  0
MTEXT
  5
31D
330
A0
100
AcDbEntity
  8
1
 62
     7
100
AcDbMText
 10
-184.1379618198396
 20
6.63591899505093
 30
0.0
 40
3.5
 41
0.0
 71
     5
 72
     1
  1
2
  7
CONVERTER_11
 73
     1
 44
1.20048019207683
  0
MTEXT
  5
31E
330
A0
100
AcDbEntity
  8
1
 62
     7
100
AcDbMText
 10
-233.3879618198392
 20
6.63591899505093
 30
0.0
 40
3.5
 41
0.0
 71
     5
 72
     1
  1
1
  7
CONVERTER_11
 73
     1
 44
1.20048019207683
  0
MTEXT
  5
31F
330
A0
100
AcDbEntity
  8
1
 62
     7
100
AcDbMText
 10
36.86203818015937
 20
31.63591899505104
 30
0.0
 40
3.5
 41
0.0
 71
     5
 72
     1
  1
D
  7
CONVERTER_11
 73
     1
 44
1.20048019207683
  0
MTEXT
  5
320
330
A0
100
AcDbEntity
  8
1
 62
     7
100
AcDbMText
 10
36.86203818015937
 20
134.135918995053
 30
0.0
 40
3.5
 41
0.0
 71
     5
 72
     1
  1
B
  7
CONVERTER_11
 73
     1
 44
1.20048019207683
  0
MTEXT
  5
321
330
A0
100
AcDbEntity
  8
1
 62
     7
100
AcDbMText
 10
36.86203818015937
 20
186.635918995051
 30
0.0
 40
3.5
 41
0.0
 71
     5
 72
     1
  1
A
  7
CONVERTER_11
 73
     1
 44
1.20048019207683
  0
MTEXT
  5
322
330
A0
100
AcDbEntity
  8
1
 62
     7
100
AcDbMText
 10
36.86203818015937
 20
84.13591899505295
 30
0.0
 40
3.5
 41
0.0
 71
     5
 72
     1
  1
C
  7
CONVERTER_11
 73
     1
 44
1.20048019207683
  0
MTEXT
  5
323
330
A0
100
AcDbEntity
  8
1
 62
     2
100
AcDbMText
 10
-129.6207810716371
 20
21.88591899505096
 30
0.0
 40
2.0
 41
0.0
 71
     5
 72
     1
  1
General Information\P- Simplified representation\P- Document excluded from change process\P- Linear dimensions [mm]
  7
CONVERTER_11
 73
     1
 44
1.20048019207683
  0
TEXT
  5
324
330
A0
100
AcDbEntity
  8
1
 62
     7
100
AcDbText
 10
-57.28276634658991
 20
18.93591899505094
 30
0.0
 40
2.5
  1
3030297
 41
0.81
  7
CONVERTER_12
100
AcDbText
  0
MTEXT
  5
325
330
A0
100
AcDbEntity
  8
1
 62
     2
100
AcDbMText
 10
-57.68276634658963
 20
25.13591899505104
 30
0.0
 40
1.8
 41
0.0
 71
     1
 72
     1
  1
ident.-No.
  7
CONVERTER_11
 73
     1
 44
1.20048019207683
  0
MTEXT
  5
326
330
A0
100
AcDbEntity
  8
1
 62
     2
100
AcDbMText
 10
26.54362989848309
 20
33.63591899505104
 30
0.0
 40
1.8
 41
0.0
 71
     1
 72
     1
  1
scale
  7
CONVERTER_11
 73
     1
 44
1.20048019207683
  0
MTEXT
  5
328
330
A0
100
AcDbEntity
  8
1
 62
     3
100
AcDbMText
 10
29.90283403932268
 20
27.43591899505114
 30
0.0
 40
2.5
 41
0.0
 71
     8
 72
     1
  1
1:1
  7
CONVERTER_13
 73
     1
 44
1.32052821128451
  0
TEXT
  5
329
330
A0
100
AcDbEntity
  8
1
 62
     7
100
AcDbText
 10
-57.68276634658963
 20
27.43591899505094
 30
0.0
 40
2.5
  1
00357264
 41
0.81
  7
CONVERTER_12
100
AcDbText
  0
MTEXT
  5
32B
330
A0
100
AcDbEntity
  8
1
 62
     2
100
AcDbMText
 10
-57.68276634658963
 20
33.63591899505104
 30
0.0
 40
1.8
 41
0.0
 71
     1
 72
     1
  1
document-No. / RI
  7
CONVERTER_14
 73
     1
 44
1.32052821128451
  0
TEXT
  5
32C
330
A0
100
AcDbEntity
  8
1
 62
     3
100
AcDbText
 10
-29.88276634658962
 20
18.93591899505094
 30
0.0
 40
2.5
  1
TECDOC 2D_Productdrawing
 41
0.81
  7
CONVERTER_12
100
AcDbText
  0
MTEXT
  5
32D
330
A0
100
AcDbEntity
  8
1
 62
     2
100
AcDbMText
 10
-29.88276634658962
 20
25.13591899505096
 30
0.0
 40
1.8
 41
0.0
 71
     1
 72
     1
  1
document-type
  7
CONVERTER_11
 73
     1
 44
1.20048019207683
  0
MTEXT
  5
32E
330
A0
100
AcDbEntity
  8
1
 62
     2
100
AcDbMText
 10
-0.05637010151673
 20
33.63591899505096
 30
0.0
 40
1.8
 41
0.0
 71
     1
 72
     1
  1
date
  7
CONVERTER_11
 73
     1
 44
1.32052821128451
  0
TEXT
  5
32F
330
A0
100
AcDbEntity
  8
1
 62
     3
100
AcDbText
 10
-0.05637010151673
 20
27.43591899505094
 30
0.0
 40
2.5
  1
30.01.2018
 41
0.81
  7
CONVERTER_12
100
AcDbText
  0
TEXT
  5
330
330
A0
100
AcDbEntity
  8
1
 62
     7
100
AcDbText
 10
-37.65285412753383
 20
27.43591899505094
 30
0.0
 40
2.5
  1
02
 41
0.81
  7
CONVERTER_12
100
AcDbText
  0
TEXT
  5
331
330
A0
100
AcDbEntity
  8
1
 62
     7
100
AcDbText
 10
-39.80921862457583
 20
27.43591899505094
 30
0.0
 40
2.5
  1
/
 41
0.9
  7
CONVERTER_11
100
AcDbText
  0
HATCH
  5
332
330
A0
100
AcDbEntity
  8
1
  6
Continuous
 62
     2
100
AcDbHatch
 10
0.0
 20
0.0
 30
0.0
210
0.0
220
0.0
230
1.0
  2
_USER
 70
     0
 71
     1
 91
        1
 92
        1
 93
       12
 72
     1
 10
-77.51526563362853
 20
19.78860947124164
 11
-78.70805833579493
 21
19.78860947124164
 72
     1
 10
-78.70805833579493
 20
19.78860947124164
 11
-78.70805833579493
 21
20.92288158008546
 72
     1
 10
-78.70805833579493
 20
20.92288158008546
 11
-79.75771591370241
 21
20.92288158008546
 72
     1
 10
-79.75771591370241
 20
20.92288158008546
 11
-79.75771591370241
 21
19.78860947124164
 72
     1
 10
-79.75771591370241
 20
19.78860947124164
 11
-80.95050861586901
 21
19.78860947124164
 72
     1
 10
-80.95050861586901
 20
19.78860947124164
 11
-80.95050861586901
 21
22.84241899505284
 72
     1
 10
-80.95050861586901
 20
22.84241899505284
 11
-79.75771591370241
 21
22.84241899505284
 72
     1
 10
-79.75771591370241
 20
22.84241899505284
 11
-79.75771591370241
 21
21.77358566171824
 72
     1
 10
-79.75771591370241
 20
21.77358566171824
 11
-78.70805833579493
 21
21.77358566171824
 72
     1
 10
-78.70805833579493
 20
21.77358566171824
 11
-78.70805833579493
 21
22.84241899505284
 72
     1
 10
-78.70805833579493
 20
22.84241899505284
 11
-77.51526563362853
 21
22.84241899505284
 72
     1
 10
-77.51526563362853
 20
22.84241899505284
 11
-77.51526563362853
 21
19.78860947124164
 97
       12
330
29F
330
2A0
330
28A
330
289
330
288
330
29C
330
287
330
29D
330
29E
330
286
330
285
330
284
 75
     1
 76
     0
 52
45.0
 41
0.1
 77
     0
 78
     1
 53
45.0
 43
0.0
 44
0.0
 45
-0.0707106781186548
 46
0.0707106781186548
 79
     0
 98
        1
 10
0.0
 20
0.0
  0
HATCH
  5
333
330
A0
100
AcDbEntity
  8
1
  6
Continuous
 62
     2
100
AcDbHatch
 10
0.0
 20
0.0
 30
0.0
210
0.0
220
0.0
230
1.0
  2
_USER
 70
     0
 71
     1
 91
        1
 92
        1
 93
       12
 72
     1
 10
-77.51526563362853
 20
19.78860947124164
 11
-78.70805833579493
 21
19.78860947124164
 72
     1
 10
-78.70805833579493
 20
19.78860947124164
 11
-78.70805833579493
 21
20.92288158008546
 72
     1
 10
-78.70805833579493
 20
20.92288158008546
 11
-79.75771591370241
 21
20.92288158008546
 72
     1
 10
-79.75771591370241
 20
20.92288158008546
 11
-79.75771591370241
 21
19.78860947124164
 72
     1
 10
-79.75771591370241
 20
19.78860947124164
 11
-80.95050861586901
 21
19.78860947124164
 72
     1
 10
-80.95050861586901
 20
19.78860947124164
 11
-80.95050861586901
 21
22.84241899505284
 72
     1
 10
-80.95050861586901
 20
22.84241899505284
 11
-79.75771591370241
 21
22.84241899505284
 72
     1
 10
-79.75771591370241
 20
22.84241899505284
 11
-79.75771591370241
 21
21.77358566171824
 72
     1
 10
-79.75771591370241
 20
21.77358566171824
 11
-78.70805833579493
 21
21.77358566171824
 72
     1
 10
-78.70805833579493
 20
21.77358566171824
 11
-78.70805833579493
 21
22.84241899505284
 72
     1
 10
-78.70805833579493
 20
22.84241899505284
 11
-77.51526563362853
 21
22.84241899505284
 72
     1
 10
-77.51526563362853
 20
22.84241899505284
 11
-77.51526563362853
 21
19.78860947124164
 97
       12
330
29F
330
2A0
330
28A
330
289
330
288
330
29C
330
287
330
29D
330
29E
330
286
330
285
330
284
 75
     1
 76
     0
 52
45.0
 41
0.1
 77
     0
 78
     1
 53
45.0
 43
0.0
 44
0.0
 45
-0.0707106781186548
 46
0.0707106781186548
 79
     0
 98
        1
 10
0.0
 20
0.0
  0
HATCH
  5
334
330
A0
100
AcDbEntity
  8
1
  6
Continuous
 62
     2
100
AcDbHatch
 10
0.0
 20
0.0
 30
0.0
210
0.0
220
0.0
230
1.0
  2
_USER
 70
     0
 71
     1
 91
        1
 92
        1
 93
       10
 72
     1
 10
-75.27296628444023
 20
18.17445300867334
 11
-76.51347069469313
 21
19.48322851887843
 72
     1
 10
-76.51347069469313
 20
19.48322851887843
 11
-77.70626339686072
 21
19.48322851887843
 72
     1
 10
-77.70626339686072
 20
19.48322851887843
 11
-77.70626339686072
 21
16.42941899506735
 72
     1
 10
-77.70626339686072
 20
16.42941899506735
 11
-76.51347069469313
 21
16.42941899506735
 72
     1
 10
-76.51347069469313
 20
16.42941899506735
 11
-76.51347069469313
 21
17.73819450527194
 72
     1
 10
-76.51347069469313
 20
17.73819450527194
 11
-75.27296628444023
 21
16.42941899506735
 72
     1
 10
-75.27296628444023
 20
16.42941899506735
 11
-74.08017358227383
 21
16.42941899506735
 72
     1
 10
-74.08017358227383
 20
16.42941899506735
 11
-74.08017358227383
 21
19.48322851887843
 72
     1
 10
-74.08017358227383
 20
19.48322851887843
 11
-75.27296628444023
 21
19.48322851887843
 72
     1
 10
-75.27296628444023
 20
19.48322851887843
 11
-75.27296628444023
 21
18.17445300867334
 97
       10
330
2AD
330
27D
330
27C
330
27F
330
2A8
330
2A9
330
27E
330
2AA
330
2AB
330
2AC
 75
     1
 76
     0
 52
45.0
 41
0.1
 77
     0
 78
     1
 53
45.0
 43
0.0
 44
0.0
 45
-0.0707106781186548
 46
0.0707106781186548
 79
     0
 98
        1
 10
0.0
 20
0.0
  0
HATCH
  5
335
330
A0
100
AcDbEntity
  8
1
  6
Continuous
 62
     2
100
AcDbHatch
 10
0.0
 20
0.0
 30
0.0
210
0.0
220
0.0
230
1.0
  2
_USER
 70
     0
 71
     1
 91
        1
 92
        1
 93
       10
 72
     1
 10
-75.27296628444023
 20
18.17445300867334
 11
-76.51347069469313
 21
19.48322851887843
 72
     1
 10
-76.51347069469313
 20
19.48322851887843
 11
-77.70626339686072
 21
19.48322851887843
 72
     1
 10
-77.70626339686072
 20
19.48322851887843
 11
-77.70626339686072
 21
16.42941899506735
 72
     1
 10
-77.70626339686072
 20
16.42941899506735
 11
-76.51347069469313
 21
16.42941899506735
 72
     1
 10
-76.51347069469313
 20
16.42941899506735
 11
-76.51347069469313
 21
17.73819450527194
 72
     1
 10
-76.51347069469313
 20
17.73819450527194
 11
-75.27296628444023
 21
16.42941899506735
 72
     1
 10
-75.27296628444023
 20
16.42941899506735
 11
-74.08017358227383
 21
16.42941899506735
 72
     1
 10
-74.08017358227383
 20
16.42941899506735
 11
-74.08017358227383
 21
19.48322851887843
 72
     1
 10
-74.08017358227383
 20
19.48322851887843
 11
-75.27296628444023
 21
19.48322851887843
 72
     1
 10
-75.27296628444023
 20
19.48322851887843
 11
-75.27296628444023
 21
18.17445300867334
 97
       10
330
2AD
330
27D
330
27C
330
27F
330
2A8
330
2A9
330
27E
330
2AA
330
2AB
330
2AC
 75
     1
 76
     0
 52
45.0
 41
0.1
 77
     0
 78
     1
 53
45.0
 43
0.0
 44
0.0
 45
-0.0707106781186548
 46
0.0707106781186548
 79
     0
 98
        1
 10
0.0
 20
0.0
  0
HATCH
  5
336
330
A0
100
AcDbEntity
  8
1
  6
Continuous
 62
     2
100
AcDbHatch
 10
0.0
 20
0.0
 30
0.0
210
0.0
220
0.0
230
1.0
  2
_USER
 70
     0
 71
     1
 91
        1
 92
        1
 93
       10
 72
     1
 10
-70.02452746402051
 20
21.53364348484766
 11
-71.26503187427451
 21
22.84241899505284
 72
     1
 10
-71.26503187427451
 20
22.84241899505284
 11
-72.45782457644103
 21
22.84241899505284
 72
     1
 10
-72.45782457644103
 20
22.84241899505284
 11
-72.45782457644103
 21
19.78860947124164
 72
     1
 10
-72.45782457644103
 20
19.78860947124164
 11
-71.26503187427451
 21
19.78860947124164
 72
     1
 10
-71.26503187427451
 20
19.78860947124164
 11
-71.26503187427451
 21
21.09738498144634
 72
     1
 10
-71.26503187427451
 20
21.09738498144634
 11
-70.02452746402051
 21
19.78860947124164
 72
     1
 10
-70.02452746402051
 20
19.78860947124164
 11
-68.83173476185391
 21
19.78860947124164
 72
     1
 10
-68.83173476185391
 20
19.78860947124164
 11
-68.83173476185391
 21
22.84241899505284
 72
     1
 10
-68.83173476185391
 20
22.84241899505284
 11
-70.02452746402051
 21
22.84241899505284
 72
     1
 10
-70.02452746402051
 20
22.84241899505284
 11
-70.02452746402051
 21
21.53364348484766
 97
       10
330
2B2
330
27A
330
279
330
2B3
330
278
330
2AE
330
2AF
330
2B0
330
2B1
330
27B
 75
     1
 76
     0
 52
45.0
 41
0.1
 77
     0
 78
     1
 53
45.0
 43
0.0
 44
0.0
 45
-0.0707106781186548
 46
0.0707106781186548
 79
     0
 98
        1
 10
0.0
 20
0.0
  0
HATCH
  5
337
330
A0
100
AcDbEntity
  8
1
  6
Continuous
 62
     2
100
AcDbHatch
 10
0.0
 20
0.0
 30
0.0
210
0.0
220
0.0
230
1.0
  2
_USER
 70
     0
 71
     1
 91
        1
 92
        1
 93
       10
 72
     1
 10
-70.02452746402051
 20
21.53364348484766
 11
-71.26503187427451
 21
22.84241899505284
 72
     1
 10
-71.26503187427451
 20
22.84241899505284
 11
-72.45782457644103
 21
22.84241899505284
 72
     1
 10
-72.45782457644103
 20
22.84241899505284
 11
-72.45782457644103
 21
19.78860947124164
 72
     1
 10
-72.45782457644103
 20
19.78860947124164
 11
-71.26503187427451
 21
19.78860947124164
 72
     1
 10
-71.26503187427451
 20
19.78860947124164
 11
-71.26503187427451
 21
21.09738498144634
 72
     1
 10
-71.26503187427451
 20
21.09738498144634
 11
-70.02452746402051
 21
19.78860947124164
 72
     1
 10
-70.02452746402051
 20
19.78860947124164
 11
-68.83173476185391
 21
19.78860947124164
 72
     1
 10
-68.83173476185391
 20
19.78860947124164
 11
-68.83173476185391
 21
22.84241899505284
 72
     1
 10
-68.83173476185391
 20
22.84241899505284
 11
-70.02452746402051
 21
22.84241899505284
 72
     1
 10
-70.02452746402051
 20
22.84241899505284
 11
-70.02452746402051
 21
21.53364348484766
 97
       10
330
2B2
330
27A
330
279
330
2B3
330
278
330
2AE
330
2AF
330
2B0
330
2B1
330
27B
 75
     1
 76
     0
 52
45.0
 41
0.1
 77
     0
 78
     1
 53
45.0
 43
0.0
 44
0.0
 45
-0.0707106781186548
 46
0.0707106781186548
 79
     0
 98
        1
 10
0.0
 20
0.0
  0
HATCH
  5
338
330
A0
100
AcDbEntity
  8
1
  6
Continuous
 62
     2
100
AcDbHatch
 10
0.0
 20
0.0
 30
0.0
210
0.0
220
0.0
230
1.0
  2
_USER
 70
     0
 71
     1
 91
        1
 92
        1
 93
        8
 72
     1
 10
-71.12204768090001
 20
19.48322851887843
 11
-73.93703845801363
 21
19.48322851887843
 72
     1
 10
-73.93703845801363
 20
19.48322851887843
 11
-73.93703845801363
 21
18.69796321275484
 72
     1
 10
-73.93703845801363
 20
18.69796321275484
 11
-73.12593942053903
 21
18.69796321275484
 72
     1
 10
-73.12593942053903
 20
18.69796321275484
 11
-73.12593942053903
 21
16.42941899506735
 72
     1
 10
-73.12593942053903
 20
16.42941899506735
 11
-71.93314671837251
 21
16.42941899506735
 72
     1
 10
-71.93314671837251
 20
16.42941899506735
 11
-71.93314671837251
 21
18.69796321275484
 72
     1
 10
-71.93314671837251
 20
18.69796321275484
 11
-71.12204768090001
 21
18.69796321275484
 72
     1
 10
-71.12204768090001
 20
18.69796321275484
 11
-71.12204768090001
 21
19.48322851887843
 97
        8
330
274
330
2B4
330
273
330
2B5
330
2B6
330
277
330
276
330
275
 75
     1
 76
     0
 52
45.0
 41
0.1
 77
     0
 78
     1
 53
45.0
 43
0.0
 44
0.0
 45
-0.0707106781186548
 46
0.0707106781186548
 79
     0
 98
        1
 10
0.0
 20
0.0
  0
HATCH
  5
339
330
A0
100
AcDbEntity
  8
1
  6
Continuous
 62
     2
100
AcDbHatch
 10
0.0
 20
0.0
 30
0.0
210
0.0
220
0.0
230
1.0
  2
_USER
 70
     0
 71
     1
 91
        1
 92
        1
 93
        8
 72
     1
 10
-71.12204768090001
 20
19.48322851887843
 11
-73.93703845801363
 21
19.48322851887843
 72
     1
 10
-73.93703845801363
 20
19.48322851887843
 11
-73.93703845801363
 21
18.69796321275484
 72
     1
 10
-73.93703845801363
 20
18.69796321275484
 11
-73.12593942053903
 21
18.69796321275484
 72
     1
 10
-73.12593942053903
 20
18.69796321275484
 11
-73.12593942053903
 21
16.42941899506735
 72
     1
 10
-73.12593942053903
 20
16.42941899506735
 11
-71.93314671837251
 21
16.42941899506735
 72
     1
 10
-71.93314671837251
 20
16.42941899506735
 11
-71.93314671837251
 21
18.69796321275484
 72
     1
 10
-71.93314671837251
 20
18.69796321275484
 11
-71.12204768090001
 21
18.69796321275484
 72
     1
 10
-71.12204768090001
 20
18.69796321275484
 11
-71.12204768090001
 21
19.48322851887843
 97
        8
330
274
330
2B4
330
273
330
2B5
330
2B6
330
277
330
276
330
275
 75
     1
 76
     0
 52
45.0
 41
0.1
 77
     0
 78
     1
 53
45.0
 43
0.0
 44
0.0
 45
-0.0707106781186548
 46
0.0707106781186548
 79
     0
 98
        1
 10
0.0
 20
0.0
  0
HATCH
  5
33A
330
A0
100
AcDbEntity
  8
1
  6
Continuous
 62
     2
100
AcDbHatch
 10
0.0
 20
0.0
 30
0.0
210
0.0
220
0.0
230
1.0
  2
_USER
 70
     0
 71
     1
 91
        2
 92
        1
 93
        8
 72
     1
 10
-68.98362022495303
 20
16.42941899506735
 11
-69.19510027842881
 21
16.97037953928523
 72
     1
 10
-69.19510027842881
 20
16.97037953928523
 11
-70.32754185510262
 21
16.97037953928523
 72
     1
 10
-70.32754185510262
 20
16.97037953928523
 11
-70.53902190857843
 21
16.42941899506735
 72
     1
 10
-70.53902190857843
 20
16.42941899506735
 11
-71.77952631883142
 21
16.42941899506735
 72
     1
 10
-71.77952631883142
 20
16.42941899506735
 11
-70.38157327189211
 21
19.48322851887843
 72
     1
 10
-70.38157327189211
 20
19.48322851887843
 11
-69.14106886163941
 21
19.48322851887843
 72
     1
 10
-69.14106886163941
 20
19.48322851887843
 11
-67.74311581469911
 21
16.42941899506735
 72
     1
 10
-67.74311581469911
 20
16.42941899506735
 11
-68.98362022495303
 21
16.42941899506735
 97
        8
330
2B8
330
2B9
330
270
330
2BA
330
26F
330
272
330
2B7
330
271
 92
       16
 93
        3
 72
     1
 10
-70.06148630395762
 20
17.65094280459184
 11
-69.76132106676522
 21
18.41875777057854
 72
     1
 10
-69.76132106676522
 20
18.41875777057854
 11
-69.46115582957512
 21
17.65094280459184
 72
     1
 10
-69.46115582957512
 20
17.65094280459184
 11
-70.06148630395762
 21
17.65094280459184
 97
        3
330
26E
330
2BC
330
2BB
 75
     1
 76
     0
 52
45.0
 41
0.1
 77
     0
 78
     1
 53
45.0
 43
0.0
 44
0.0
 45
-0.0707106781186548
 46
0.0707106781186548
 79
     0
 98
        1
 10
0.0
 20
0.0
  0
HATCH
  5
33B
330
A0
100
AcDbEntity
  8
1
  6
Continuous
 62
     2
100
AcDbHatch
 10
0.0
 20
0.0
 30
0.0
210
0.0
220
0.0
230
1.0
  2
_USER
 70
     0
 71
     1
 91
        2
 92
        1
 93
        8
 72
     1
 10
-68.98362022495303
 20
16.42941899506735
 11
-69.19510027842881
 21
16.97037953928523
 72
     1
 10
-69.19510027842881
 20
16.97037953928523
 11
-70.32754185510262
 21
16.97037953928523
 72
     1
 10
-70.32754185510262
 20
16.97037953928523
 11
-70.53902190857843
 21
16.42941899506735
 72
     1
 10
-70.53902190857843
 20
16.42941899506735
 11
-71.77952631883142
 21
16.42941899506735
 72
     1
 10
-71.77952631883142
 20
16.42941899506735
 11
-70.38157327189211
 21
19.48322851887843
 72
     1
 10
-70.38157327189211
 20
19.48322851887843
 11
-69.14106886163941
 21
19.48322851887843
 72
     1
 10
-69.14106886163941
 20
19.48322851887843
 11
-67.74311581469911
 21
16.42941899506735
 72
     1
 10
-67.74311581469911
 20
16.42941899506735
 11
-68.98362022495303
 21
16.42941899506735
 97
        8
330
2B8
330
2B9
330
270
330
2BA
330
26F
330
272
330
2B7
330
271
 92
       16
 93
        3
 72
     1
 10
-70.06148630395762
 20
17.65094280459184
 11
-69.76132106676522
 21
18.41875777057854
 72
     1
 10
-69.76132106676522
 20
18.41875777057854
 11
-69.46115582957512
 21
17.65094280459184
 72
     1
 10
-69.46115582957512
 20
17.65094280459184
 11
-70.06148630395762
 21
17.65094280459184
 97
        3
330
26E
330
2BC
330
2BB
 75
     1
 76
     0
 52
45.0
 41
0.1
 77
     0
 78
     1
 53
45.0
 43
0.0
 44
0.0
 45
-0.0707106781186548
 46
0.0707106781186548
 79
     0
 98
        1
 10
0.0
 20
0.0
  0
HATCH
  5
33C
330
A0
100
AcDbEntity
  8
1
  6
Continuous
 62
     2
100
AcDbHatch
 10
0.0
 20
0.0
 30
0.0
210
0.0
220
0.0
230
1.0
  2
_USER
 70
     0
 71
     1
 91
        1
 92
        1
 93
        4
 72
     1
 10
-67.35267181116711
 20
19.78860947124164
 11
-68.59317622142001
 21
19.78860947124164
 72
     1
 10
-68.59317622142001
 20
19.78860947124164
 11
-68.59317622142001
 21
22.84241899505284
 72
     1
 10
-68.59317622142001
 20
22.84241899505284
 11
-67.35267181116711
 21
22.84241899505284
 72
     1
 10
-67.35267181116711
 20
22.84241899505284
 11
-67.35267181116711
 21
19.78860947124164
 97
        4
330
26B
330
26D
330
2BD
330
26C
 75
     1
 76
     0
 52
45.0
 41
0.1
 77
     0
 78
     1
 53
45.0
 43
0.0
 44
0.0
 45
-0.0707106781186548
 46
0.0707106781186548
 79
     0
 98
        1
 10
0.0
 20
0.0
  0
HATCH
  5
33D
330
A0
100
AcDbEntity
  8
1
  6
Continuous
 62
     2
100
AcDbHatch
 10
0.0
 20
0.0
 30
0.0
210
0.0
220
0.0
230
1.0
  2
_USER
 70
     0
 71
     1
 91
        1
 92
        1
 93
        4
 72
     1
 10
-67.35267181116711
 20
19.78860947124164
 11
-68.59317622142001
 21
19.78860947124164
 72
     1
 10
-68.59317622142001
 20
19.78860947124164
 11
-68.59317622142001
 21
22.84241899505284
 72
     1
 10
-68.59317622142001
 20
22.84241899505284
 11
-67.35267181116711
 21
22.84241899505284
 72
     1
 10
-67.35267181116711
 20
22.84241899505284
 11
-67.35267181116711
 21
19.78860947124164
 97
        4
330
26B
330
26D
330
2BD
330
26C
 75
     1
 76
     0
 52
45.0
 41
0.1
 77
     0
 78
     1
 53
45.0
 43
0.0
 44
0.0
 45
-0.0707106781186548
 46
0.0707106781186548
 79
     0
 98
        1
 10
0.0
 20
0.0
  0
HATCH
  5
33E
330
A0
100
AcDbEntity
  8
1
  6
Continuous
 62
     2
100
AcDbHatch
 10
0.0
 20
0.0
 30
0.0
210
0.0
220
0.0
230
1.0
  2
_USER
 70
     0
 71
     1
 91
        1
 92
        1
 93
       12
 72
     1
 10
-63.13018564549631
 20
22.84241899505284
 11
-64.43271527626283
 21
21.36946846501664
 72
     1
 10
-64.43271527626283
 20
21.36946846501664
 11
-63.03476222932252
 21
19.78860947124164
 72
     1
 10
-63.03476222932252
 20
19.78860947124164
 11
-64.43748644707082
 21
19.78860947124164
 72
     1
 10
-64.43748644707082
 20
19.78860947124164
 11
-65.13407738513632
 21
20.57634125653536
 72
     1
 10
-65.13407738513632
 20
20.57634125653536
 11
-65.83066832320202
 21
19.78860947124164
 72
     1
 10
-65.83066832320202
 20
19.78860947124164
 11
-67.23339254095023
 21
19.78860947124164
 72
     1
 10
-67.23339254095023
 20
19.78860947124164
 11
-65.83543949400993
 21
21.36946846501664
 72
     1
 10
-65.83543949400993
 20
21.36946846501664
 11
-67.13796912477741
 21
22.84241899505284
 72
     1
 10
-67.13796912477741
 20
22.84241899505284
 11
-65.73524490702812
 21
22.84241899505284
 72
     1
 10
-65.73524490702812
 20
22.84241899505284
 11
-65.13407738513632
 21
22.16259567349735
 72
     1
 10
-65.13407738513632
 20
22.16259567349735
 11
-64.53290986324353
 21
22.84241899505284
 72
     1
 10
-64.53290986324353
 20
22.84241899505284
 11
-63.13018564549631
 21
22.84241899505284
 97
       12
330
266
330
265
330
264
330
2C1
330
2C2
330
2BE
330
2BF
330
26A
330
269
330
268
330
267
330
2C0
 75
     1
 76
     0
 52
45.0
 41
0.1
 77
     0
 78
     1
 53
45.0
 43
0.0
 44
0.0
 45
-0.0707106781186548
 46
0.0707106781186548
 79
     0
 98
        1
 10
0.0
 20
0.0
  0
HATCH
  5
33F
330
A0
100
AcDbEntity
  8
1
  6
Continuous
 62
     2
100
AcDbHatch
 10
0.0
 20
0.0
 30
0.0
210
0.0
220
0.0
230
1.0
  2
_USER
 70
     0
 71
     1
 91
        1
 92
        1
 93
       12
 72
     1
 10
-63.13018564549631
 20
22.84241899505284
 11
-64.43271527626283
 21
21.36946846501664
 72
     1
 10
-64.43271527626283
 20
21.36946846501664
 11
-63.03476222932252
 21
19.78860947124164
 72
     1
 10
-63.03476222932252
 20
19.78860947124164
 11
-64.43748644707082
 21
19.78860947124164
 72
     1
 10
-64.43748644707082
 20
19.78860947124164
 11
-65.13407738513632
 21
20.57634125653536
 72
     1
 10
-65.13407738513632
 20
20.57634125653536
 11
-65.83066832320202
 21
19.78860947124164
 72
     1
 10
-65.83066832320202
 20
19.78860947124164
 11
-67.23339254095023
 21
19.78860947124164
 72
     1
 10
-67.23339254095023
 20
19.78860947124164
 11
-65.83543949400993
 21
21.36946846501664
 72
     1
 10
-65.83543949400993
 20
21.36946846501664
 11
-67.13796912477741
 21
22.84241899505284
 72
     1
 10
-67.13796912477741
 20
22.84241899505284
 11
-65.73524490702812
 21
22.84241899505284
 72
     1
 10
-65.73524490702812
 20
22.84241899505284
 11
-65.13407738513632
 21
22.16259567349735
 72
     1
 10
-65.13407738513632
 20
22.16259567349735
 11
-64.53290986324353
 21
22.84241899505284
 72
     1
 10
-64.53290986324353
 20
22.84241899505284
 11
-63.13018564549631
 21
22.84241899505284
 97
       12
330
266
330
265
330
264
330
2C1
330
2C2
330
2BE
330
2BF
330
26A
330
269
330
268
330
267
330
2C0
 75
     1
 76
     0
 52
45.0
 41
0.1
 77
     0
 78
     1
 53
45.0
 43
0.0
 44
0.0
 45
-0.0707106781186548
 46
0.0707106781186548
 79
     0
 98
        1
 10
0.0
 20
0.0
  0
HATCH
  5
340
330
A0
100
AcDbEntity
  8
1
  6
Continuous
 62
     2
100
AcDbHatch
 10
0.0
 20
0.0
 30
0.0
210
0.0
220
0.0
230
1.0
  2
_USER
 70
     0
 71
     1
 91
        2
 92
        1
 93
        6
 72
     1
 10
-82.14792105964233
 20
20.73168771238545
 11
-82.90668864742261
 21
20.73168771238545
 72
     1
 10
-82.90668864742261
 20
20.73168771238545
 11
-82.90668864742261
 21
19.78860947124164
 72
     1
 10
-82.90668864742261
 20
19.78860947124164
 11
-84.14719305767673
 21
19.78860947124164
 72
     1
 10
-84.14719305767673
 20
19.78860947124164
 11
-84.14719305767673
 21
22.84241899505284
 72
     1
 10
-84.14719305767673
 20
22.84241899505284
 11
-82.14792105964233
 21
22.84241899505284
 72
     2
 10
-82.14792105964233
 20
21.78705335371916
 40
1.055365641333708
 50
270.0
 51
450.0
 73
     0
 97
        6
330
28E
330
28D
330
29A
330
299
330
28F
330
2DF
 92
       16
 93
        4
 72
     2
 10
-82.58939358588071
 20
21.82644932494165
 40
0.3528638246711182
 50
270.0
 51
450.0
 73
     1
 72
     1
 10
-82.58939358588071
 20
22.17931314961274
 11
-82.90668864742261
 21
22.17931314961274
 72
     1
 10
-82.90668864742261
 20
22.17931314961274
 11
-82.90668864742261
 21
21.47358550027053
 72
     1
 10
-82.90668864742261
 20
21.47358550027053
 11
-82.58939358588071
 21
21.47358550027053
 97
        4
330
2F3
330
28B
330
29B
330
28C
 75
     1
 76
     0
 52
45.0
 41
0.1
 77
     0
 78
     1
 53
45.0
 43
0.0
 44
0.0
 45
-0.0707106781186548
 46
0.0707106781186548
 79
     0
 98
        1
 10
0.0
 20
0.0
  0
HATCH
  5
341
330
A0
100
AcDbEntity
  8
1
  6
Continuous
 62
     2
100
AcDbHatch
 10
0.0
 20
0.0
 30
0.0
210
0.0
220
0.0
230
1.0
  2
_USER
 70
     0
 71
     1
 91
        2
 92
        1
 93
        6
 72
     1
 10
-82.14792105964233
 20
20.73168771238545
 11
-82.90668864742261
 21
20.73168771238545
 72
     1
 10
-82.90668864742261
 20
20.73168771238545
 11
-82.90668864742261
 21
19.78860947124164
 72
     1
 10
-82.90668864742261
 20
19.78860947124164
 11
-84.14719305767673
 21
19.78860947124164
 72
     1
 10
-84.14719305767673
 20
19.78860947124164
 11
-84.14719305767673
 21
22.84241899505284
 72
     1
 10
-84.14719305767673
 20
22.84241899505284
 11
-82.14792105964233
 21
22.84241899505284
 72
     2
 10
-82.14792105964233
 20
21.78705335371916
 40
1.055365641333708
 50
270.0
 51
450.0
 73
     0
 97
        6
330
28E
330
28D
330
29A
330
299
330
28F
330
2DF
 92
       16
 93
        4
 72
     2
 10
-82.58939358588071
 20
21.82644932494165
 40
0.3528638246711182
 50
270.0
 51
450.0
 73
     1
 72
     1
 10
-82.58939358588071
 20
22.17931314961274
 11
-82.90668864742261
 21
22.17931314961274
 72
     1
 10
-82.90668864742261
 20
22.17931314961274
 11
-82.90668864742261
 21
21.47358550027053
 72
     1
 10
-82.90668864742261
 20
21.47358550027053
 11
-82.58939358588071
 21
21.47358550027053
 97
        4
330
2F3
330
28B
330
29B
330
28C
 75
     1
 76
     0
 52
45.0
 41
0.1
 77
     0
 78
     1
 53
45.0
 43
0.0
 44
0.0
 45
-0.0707106781186548
 46
0.0707106781186548
 79
     0
 98
        1
 10
0.0
 20
0.0
  0
HATCH
  5
342
330
A0
100
AcDbEntity
  8
1
  6
Continuous
 62
     2
100
AcDbHatch
 10
0.0
 20
0.0
 30
0.0
210
0.0
220
0.0
230
1.0
  2
_USER
 70
     0
 71
     1
 91
        2
 92
        1
 93
        4
 72
     2
 10
-79.59137831128322
 20
17.41774874666984
 40
2.065479772208574
 50
62.45185182430646
 51
117.5481481756663
 73
     1
 72
     2
 10
-79.87231820311652
 20
17.95632375697264
 40
1.45803408365149
 50
117.5481481756624
 51
242.4518518243375
 73
     1
 72
     2
 10
-79.59137831128322
 20
18.49489876727594
 40
2.065479772208505
 50
242.4518518243401
 51
297.5481481756871
 73
     1
 72
     2
 10
-79.31043841944992
 20
17.95632375697264
 40
1.458034083652003
 50
297.548148175701
 51
422.451851824299
 73
     1
 97
        4
330
2EB
330
2EA
330
2EC
330
2E9
 92
       16
 93
        4
 72
     2
 10
-79.79111834762963
 20
17.95632375697264
 40
0.7717997786796947
 50
321.8795802028417
 51
398.120419797153
 73
     1
 72
     2
 10
-79.59137831128322
 20
18.11305493509315
 40
0.5179085730132976
 50
38.12041979714672
 51
141.8795802028591
 73
     1
 72
     2
 10
-79.39163827493712
 20
17.95632375697264
 40
0.771799778679461
 50
141.8795802028365
 51
218.1204197971687
 73
     1
 72
     2
 10
-79.59137831128322
 20
17.79959257885264
 40
0.5179085730137332
 50
218.1204197971929
 51
321.8795802028013
 73
     1
 97
        4
330
307
330
304
330
305
330
306
 75
     1
 76
     0
 52
45.0
 41
0.1
 77
     0
 78
     1
 53
45.0
 43
0.0
 44
0.0
 45
-0.0707106781186548
 46
0.0707106781186548
 79
     0
 98
        1
 10
0.0
 20
0.0
  0
HATCH
  5
343
330
A0
100
AcDbEntity
  8
1
  6
Continuous
 62
     2
100
AcDbHatch
 10
0.0
 20
0.0
 30
0.0
210
0.0
220
0.0
230
1.0
  2
_USER
 70
     0
 71
     1
 91
        2
 92
        1
 93
        4
 72
     2
 10
-79.59137831128322
 20
17.41774874666984
 40
2.065479772208574
 50
62.45185182430646
 51
117.5481481756663
 73
     1
 72
     2
 10
-79.87231820311652
 20
17.95632375697264
 40
1.45803408365149
 50
117.5481481756624
 51
242.4518518243375
 73
     1
 72
     2
 10
-79.59137831128322
 20
18.49489876727594
 40
2.065479772208505
 50
242.4518518243401
 51
297.5481481756871
 73
     1
 72
     2
 10
-79.31043841944992
 20
17.95632375697264
 40
1.458034083652003
 50
297.548148175701
 51
422.451851824299
 73
     1
 97
        4
330
2EB
330
2EA
330
2EC
330
2E9
 92
       16
 93
        4
 72
     2
 10
-79.79111834762963
 20
17.95632375697264
 40
0.7717997786796947
 50
321.8795802028417
 51
398.120419797153
 73
     1
 72
     2
 10
-79.59137831128322
 20
18.11305493509315
 40
0.5179085730132976
 50
38.12041979714672
 51
141.8795802028591
 73
     1
 72
     2
 10
-79.39163827493712
 20
17.95632375697264
 40
0.771799778679461
 50
141.8795802028365
 51
218.1204197971687
 73
     1
 72
     2
 10
-79.59137831128322
 20
17.79959257885264
 40
0.5179085730137332
 50
218.1204197971929
 51
321.8795802028013
 73
     1
 97
        4
330
307
330
304
330
305
330
306
 75
     1
 76
     0
 52
45.0
 41
0.1
 77
     0
 78
     1
 53
45.0
 43
0.0
 44
0.0
 45
-0.0707106781186548
 46
0.0707106781186548
 79
     0
 98
        1
 10
0.0
 20
0.0
  0
HATCH
  5
344
330
A0
100
AcDbEntity
  8
1
  6
Continuous
 62
     2
100
AcDbHatch
 10
0.0
 20
0.0
 30
0.0
210
0.0
220
0.0
230
1.0
  2
_USER
 70
     0
 71
     1
 91
        2
 92
        1
 93
       12
 72
     1
 10
-72.69638311687393
 20
22.14440538960986
 11
-74.03231094330161
 21
22.14440538960986
 72
     1
 10
-74.03231094330161
 20
22.14440538960986
 11
-74.03231094330161
 21
21.66452103586815
 72
     1
 10
-74.03231094330161
 20
21.66452103586815
 11
-72.69638311687393
 21
21.66452103586815
 72
     1
 10
-72.69638311687393
 20
21.66452103586815
 11
-72.69638311687393
 21
20.96650743042585
 72
     1
 10
-72.69638311687393
 20
20.96650743042585
 11
-74.03231094330161
 21
20.96650743042585
 72
     1
 10
-74.03231094330161
 20
20.96650743042585
 11
-74.03231094330161
 21
20.48662307668414
 72
     1
 10
-74.03231094330161
 20
20.48662307668414
 11
-72.69638311687393
 21
20.48662307668414
 72
     1
 10
-72.69638311687393
 20
20.48662307668414
 11
-72.69638311687393
 21
19.78860947124164
 72
     1
 10
-72.69638311687393
 20
19.78860947124164
 11
-75.84670284065493
 21
19.78860947124164
 72
     2
 10
-75.84670284065493
 20
21.31551423314696
 40
1.526904761905879
 50
90.0
 51
270.0
 73
     0
 72
     1
 10
-75.84670284065493
 20
22.84241899505284
 11
-72.69638311687393
 21
22.84241899505284
 72
     1
 10
-72.69638311687393
 20
22.84241899505284
 11
-72.69638311687393
 21
22.14440538960986
 97
       12
330
2A2
330
2F4
330
2A3
330
2A4
330
2A5
330
2A6
330
283
330
282
330
281
330
280
330
2A7
330
2A1
 92
       16
 93
        4
 72
     2
 10
-75.63043083048973
 20
21.47224541126744
 40
0.5179085730135266
 50
38.12041979714334
 51
141.8795802028489
 73
     1
 72
     2
 10
-75.43069079414343
 20
21.31551423314696
 40
0.7717997786796724
 50
141.8795802028404
 51
218.1204197971566
 73
     1
 72
     2
 10
-75.63043083048973
 20
21.15878305502653
 40
0.5179085730134372
 50
218.1204197971511
 51
321.8795802028566
 73
     1
 72
     2
 10
-75.83017086683591
 20
21.31551423314696
 40
0.7717997786796417
 50
321.8795802028433
 51
398.1204197971596
 73
     1
 97
        4
330
2EE
330
2ED
330
2E8
330
2E7
 75
     1
 76
     0
 52
45.0
 41
0.1
 77
     0
 78
     1
 53
45.0
 43
0.0
 44
0.0
 45
-0.0707106781186548
 46
0.0707106781186548
 79
     0
 98
        1
 10
0.0
 20
0.0
  0
HATCH
  5
345
330
A0
100
AcDbEntity
  8
1
  6
Continuous
 62
     2
100
AcDbHatch
 10
0.0
 20
0.0
 30
0.0
210
0.0
220
0.0
230
1.0
  2
_USER
 70
     0
 71
     1
 91
        2
 92
        1
 93
       12
 72
     1
 10
-72.69638311687393
 20
22.14440538960986
 11
-74.03231094330161
 21
22.14440538960986
 72
     1
 10
-74.03231094330161
 20
22.14440538960986
 11
-74.03231094330161
 21
21.66452103586815
 72
     1
 10
-74.03231094330161
 20
21.66452103586815
 11
-72.69638311687393
 21
21.66452103586815
 72
     1
 10
-72.69638311687393
 20
21.66452103586815
 11
-72.69638311687393
 21
20.96650743042585
 72
     1
 10
-72.69638311687393
 20
20.96650743042585
 11
-74.03231094330161
 21
20.96650743042585
 72
     1
 10
-74.03231094330161
 20
20.96650743042585
 11
-74.03231094330161
 21
20.48662307668414
 72
     1
 10
-74.03231094330161
 20
20.48662307668414
 11
-72.69638311687393
 21
20.48662307668414
 72
     1
 10
-72.69638311687393
 20
20.48662307668414
 11
-72.69638311687393
 21
19.78860947124164
 72
     1
 10
-72.69638311687393
 20
19.78860947124164
 11
-75.84670284065493
 21
19.78860947124164
 72
     2
 10
-75.84670284065493
 20
21.31551423314696
 40
1.526904761905879
 50
90.0
 51
270.0
 73
     0
 72
     1
 10
-75.84670284065493
 20
22.84241899505284
 11
-72.69638311687393
 21
22.84241899505284
 72
     1
 10
-72.69638311687393
 20
22.84241899505284
 11
-72.69638311687393
 21
22.14440538960986
 97
       12
330
2A2
330
2F4
330
2A3
330
2A4
330
2A5
330
2A6
330
283
330
282
330
281
330
280
330
2A7
330
2A1
 92
       16
 93
        4
 72
     2
 10
-75.63043083048973
 20
21.47224541126744
 40
0.5179085730135266
 50
38.12041979714334
 51
141.8795802028489
 73
     1
 72
     2
 10
-75.43069079414343
 20
21.31551423314696
 40
0.7717997786796724
 50
141.8795802028404
 51
218.1204197971566
 73
     1
 72
     2
 10
-75.63043083048973
 20
21.15878305502653
 40
0.5179085730134372
 50
218.1204197971511
 51
321.8795802028566
 73
     1
 72
     2
 10
-75.83017086683591
 20
21.31551423314696
 40
0.7717997786796417
 50
321.8795802028433
 51
398.1204197971596
 73
     1
 97
        4
330
2EE
330
2ED
330
2E8
330
2E7
 75
     1
 76
     0
 52
45.0
 41
0.1
 77
     0
 78
     1
 53
45.0
 43
0.0
 44
0.0
 45
-0.0707106781186548
 46
0.0707106781186548
 79
     0
 98
        1
 10
0.0
 20
0.0
  0
HATCH
  5
346
330
A0
100
AcDbEntity
  8
1
  6
Continuous
 62
     2
100
AcDbHatch
 10
0.0
 20
0.0
 30
0.0
210
0.0
220
0.0
230
1.0
  2
_USER
 70
     0
 71
     1
 91
        4
 92
        1
 93
        8
 72
     1
 10
-84.62431013854354
 20
22.41817437965085
 11
-84.62431013854354
 21
16.85366361045064
 72
     2
 10
-85.04855475392742
 20
16.85366361045064
 40
0.4242446153832873
 50
0.0
 51
90.0
 73
     0
 72
     1
 10
-85.04855475392742
 20
16.42941899506735
 11
-90.52186684464422
 21
16.42941899506735
 72
     2
 10
-90.52186684464422
 20
16.85366361045064
 40
0.4242446153828041
 50
90.0
 51
180.0
 73
     0
 72
     1
 10
-90.94611146002703
 20
16.85366361045064
 11
-90.94611146002703
 21
22.41817437965085
 72
     2
 10
-90.52186684464422
 20
22.41817437965085
 40
0.4242446153837989
 50
180.0
 51
270.0
 73
     0
 72
     1
 10
-90.52186684464422
 20
22.84241899503465
 11
-85.04855475392742
 21
22.84241899503465
 72
     2
 10
-85.04855475392742
 20
22.41817437965085
 40
0.4242446153838841
 50
270.0
 51
360.0
 73
     0
 97
        8
330
296
330
2E4
330
297
330
2EF
330
294
330
2E6
330
295
330
2E5
 92
       16
 93
        1
 72
     2
 10
-87.90228119412672
 20
20.09929215129534
 40
0.4709789327785074
 50
0.0
 51
360.0
 73
     1
 97
        1
330
30A
 92
       16
 93
        8
 72
     2
 10
-87.35242348136603
 20
18.99015055132693
 40
0.3157169230765328
 50
115.3740086783519
 51
180.0
 73
     1
 72
     1
 10
-87.66814040444282
 20
18.99015055132693
 11
-87.66814040444282
 21
18.40829914463185
 72
     2
 10
-87.35242348136603
 20
18.40829914463185
 40
0.315716923076792
 50
180.0
 51
269.8110329574542
 73
     1
 72
     2
 10
-87.34680734605601
 20
20.11113409220084
 40
2.018561131933266
 50
269.8110329575858
 51
450.1889670424142
 73
     1
 72
     2
 10
-87.35242348136603
 20
21.81396903976994
 40
0.3157169230760746
 50
90.18896704254594
 51
180.0
 73
     1
 72
     1
 10
-87.66814040444282
 20
21.81396903976994
 11
-87.66814040444282
 21
21.20843375126316
 72
     2
 10
-87.35242348136603
 20
21.20843375126316
 40
0.315716923076792
 50
180.0
 51
244.6259913216484
 73
     1
 72
     2
 10
-87.87846617945391
 20
20.09929215129534
 40
0.911848150144459
 50
295.3740086781925
 51
424.6259913218236
 73
     0
 97
        8
330
2FC
330
25D
330
2F9
330
2FA
330
2D8
330
25C
330
2FB
330
2D7
 92
       16
 93
       12
 72
     2
 10
-89.92797216789774
 20
17.45769147370095
 40
0.3157169230756836
 50
180.0
 51
270.0
 73
     1
 72
     1
 10
-89.92797216789774
 20
17.14197455062424
 11
-88.45213890688811
 21
17.14197455062424
 72
     2
 10
-88.45213890688811
 20
17.45769147370095
 40
0.3157169230767103
 50
270.0
 51
360.0
 73
     1
 72
     1
 10
-88.13642198381152
 20
17.45769147370095
 11
-88.13642198381152
 21
18.98846240523255
 72
     2
 10
-88.45213890688811
 20
18.98846240523255
 40
0.315716923076593
 50
0.0
 51
64.80558935146027
 73
     1
 72
     2
 10
-87.92955445931312
 20
20.09929215129534
 40
0.9118975235576178
 50
115.1944106485122
 51
244.8055893514719
 73
     0
 72
     2
 10
-88.45213890688811
 20
21.21012189735754
 40
0.3157169230761203
 50
295.1944106485397
 51
360.0
 73
     1
 72
     1
 10
-88.13642198381152
 20
21.21012189735754
 11
-88.13642198381152
 21
21.81414651641805
 72
     2
 10
-88.45213890688811
 20
21.81414651641805
 40
0.315716923076593
 50
0.0
 51
90.0
 73
     1
 72
     1
 10
-88.45213890688811
 20
22.12986343949424
 11
-89.92797216789774
 21
22.12986343949424
 72
     2
 10
-89.92797216789774
 20
21.81414651641805
 40
0.3157169230761916
 50
90.0
 51
180.0
 73
     1
 72
     1
 10
-90.24368909097342
 20
21.81414651641805
 11
-90.24368909097342
 21
17.45769147370095
 97
       12
330
2E0
330
298
330
2E3
330
293
330
2F0
330
2F1
330
2E2
330
292
330
2E1
330
291
330
2F2
330
290
 75
     1
 76
     0
 52
45.0
 41
0.1
 77
     0
 78
     1
 53
45.0
 43
0.0
 44
0.0
 45
-0.0707106781186548
 46
0.0707106781186548
 79
     0
 98
        1
 10
0.0
 20
0.0
  0
HATCH
  5
347
330
A0
100
AcDbEntity
  8
1
  6
Continuous
 62
     2
100
AcDbHatch
 10
0.0
 20
0.0
 30
0.0
210
0.0
220
0.0
230
1.0
  2
_USER
 70
     0
 71
     1
 91
        4
 92
        1
 93
        8
 72
     1
 10
-84.62431013854354
 20
22.41817437965085
 11
-84.62431013854354
 21
16.85366361045064
 72
     2
 10
-85.04855475392742
 20
16.85366361045064
 40
0.4242446153832873
 50
0.0
 51
90.0
 73
     0
 72
     1
 10
-85.04855475392742
 20
16.42941899506735
 11
-90.52186684464422
 21
16.42941899506735
 72
     2
 10
-90.52186684464422
 20
16.85366361045064
 40
0.4242446153828041
 50
90.0
 51
180.0
 73
     0
 72
     1
 10
-90.94611146002703
 20
16.85366361045064
 11
-90.94611146002703
 21
22.41817437965085
 72
     2
 10
-90.52186684464422
 20
22.41817437965085
 40
0.4242446153837989
 50
180.0
 51
270.0
 73
     0
 72
     1
 10
-90.52186684464422
 20
22.84241899503465
 11
-85.04855475392742
 21
22.84241899503465
 72
     2
 10
-85.04855475392742
 20
22.41817437965085
 40
0.4242446153838841
 50
270.0
 51
360.0
 73
     0
 97
        8
330
296
330
2E4
330
297
330
2EF
330
294
330
2E6
330
295
330
2E5
 92
       16
 93
        1
 72
     2
 10
-87.90228119412672
 20
20.09929215129534
 40
0.4709789327785074
 50
0.0
 51
360.0
 73
     1
 97
        1
330
30A
 92
       16
 93
        8
 72
     2
 10
-87.35242348136603
 20
18.99015055132693
 40
0.3157169230765328
 50
115.3740086783519
 51
180.0
 73
     1
 72
     1
 10
-87.66814040444282
 20
18.99015055132693
 11
-87.66814040444282
 21
18.40829914463185
 72
     2
 10
-87.35242348136603
 20
18.40829914463185
 40
0.315716923076792
 50
180.0
 51
269.8110329574542
 73
     1
 72
     2
 10
-87.34680734605601
 20
20.11113409220084
 40
2.018561131933266
 50
269.8110329575858
 51
450.1889670424142
 73
     1
 72
     2
 10
-87.35242348136603
 20
21.81396903976994
 40
0.3157169230760746
 50
90.18896704254594
 51
180.0
 73
     1
 72
     1
 10
-87.66814040444282
 20
21.81396903976994
 11
-87.66814040444282
 21
21.20843375126316
 72
     2
 10
-87.35242348136603
 20
21.20843375126316
 40
0.315716923076792
 50
180.0
 51
244.6259913216484
 73
     1
 72
     2
 10
-87.87846617945391
 20
20.09929215129534
 40
0.911848150144459
 50
295.3740086781925
 51
424.6259913218236
 73
     0
 97
        8
330
2FC
330
25D
330
2F9
330
2FA
330
2D8
330
25C
330
2FB
330
2D7
 92
       16
 93
       12
 72
     2
 10
-89.92797216789774
 20
17.45769147370095
 40
0.3157169230756836
 50
180.0
 51
270.0
 73
     1
 72
     1
 10
-89.92797216789774
 20
17.14197455062424
 11
-88.45213890688811
 21
17.14197455062424
 72
     2
 10
-88.45213890688811
 20
17.45769147370095
 40
0.3157169230767103
 50
270.0
 51
360.0
 73
     1
 72
     1
 10
-88.13642198381152
 20
17.45769147370095
 11
-88.13642198381152
 21
18.98846240523255
 72
     2
 10
-88.45213890688811
 20
18.98846240523255
 40
0.315716923076593
 50
0.0
 51
64.80558935146027
 73
     1
 72
     2
 10
-87.92955445931312
 20
20.09929215129534
 40
0.9118975235576178
 50
115.1944106485122
 51
244.8055893514719
 73
     0
 72
     2
 10
-88.45213890688811
 20
21.21012189735754
 40
0.3157169230761203
 50
295.1944106485397
 51
360.0
 73
     1
 72
     1
 10
-88.13642198381152
 20
21.21012189735754
 11
-88.13642198381152
 21
21.81414651641805
 72
     2
 10
-88.45213890688811
 20
21.81414651641805
 40
0.315716923076593
 50
0.0
 51
90.0
 73
     1
 72
     1
 10
-88.45213890688811
 20
22.12986343949424
 11
-89.92797216789774
 21
22.12986343949424
 72
     2
 10
-89.92797216789774
 20
21.81414651641805
 40
0.3157169230761916
 50
90.0
 51
180.0
 73
     1
 72
     1
 10
-90.24368909097342
 20
21.81414651641805
 11
-90.24368909097342
 21
17.45769147370095
 97
       12
330
2E0
330
298
330
2E3
330
293
330
2F0
330
2F1
330
2E2
330
292
330
2E1
330
291
330
2F2
330
290
 75
     1
 76
     0
 52
45.0
 41
0.1
 77
     0
 78
     1
 53
45.0
 43
0.0
 44
0.0
 45
-0.0707106781186548
 46
0.0707106781186548
 79
     0
 98
        1
 10
0.0
 20
0.0
  0
HATCH
  5
348
330
A0
100
AcDbEntity
  8
1
  6
Continuous
 62
     2
100
AcDbHatch
 10
0.0
 20
0.0
 30
0.0
210
0.0
220
0.0
230
1.0
  2
_USER
 70
     0
 71
     1
 91
        1
 92
        1
 93
       18
 72
     1
 10
-63.03476222932252
 20
18.69796321275484
 11
-63.84586126679591
 21
18.69796321275484
 72
     1
 10
-63.84586126679591
 20
18.69796321275484
 11
-63.84586126679591
 21
16.42941899506735
 72
     1
 10
-63.84586126679591
 20
16.42941899506735
 11
-65.03865396896362
 21
16.42941899506735
 72
     1
 10
-65.03865396896362
 20
16.42941899506735
 11
-65.03865396896362
 21
18.69796321275484
 72
     1
 10
-65.03865396896362
 20
18.69796321275484
 11
-66.14229326853172
 21
18.69796321275484
 72
     2
 10
-66.14229326853172
 20
17.74344020592875
 40
0.9545230068260899
 50
90.0
 51
109.3371432194321
 73
     1
 72
     2
 10
-66.28896326663542
 20
18.16139518631164
 40
0.5115800601944076
 50
109.3371432194856
 51
151.4785267424228
 73
     1
 72
     2
 10
-65.91160600855403
 20
17.95632375697264
 40
0.9410597353348907
 50
151.4785267423626
 51
208.5214732576695
 73
     1
 72
     2
 10
-66.28896326663542
 20
17.75125232763415
 40
0.5115800601960199
 50
208.5214732576863
 51
246.6277221118451
 73
     1
 72
     2
 10
-66.13252323393232
 20
18.11324434634415
 40
0.9059297849852865
 50
246.6277221118184
 51
288.4480761180817
 73
     1
 72
     2
 10
-66.55069096759422
 20
19.36679012238074
 40
2.227384008972746
 50
288.4480761181335
 51
301.9309089499397
 73
     1
 72
     1
 10
-65.37263592557031
 20
17.47643940323096
 11
-65.37263592557031
 21
16.60392239642764
 72
     2
 10
-66.70856384268703
 20
21.26900470222904
 40
4.852596863498825
 50
74.02000874166129
 51
84.84185523036365
 73
     0
 72
     2
 10
-66.41970774795121
 20
18.06911411900745
 40
1.639695123940448
 50
84.84185523032376
 51
164.9381082228988
 73
     0
 72
     2
 10
-66.83883559141282
 20
17.95632375697264
 40
1.205656168393001
 50
164.9381082229038
 51
195.061891777097
 73
     0
 72
     2
 10
-66.41970774795121
 20
17.84353339493774
 40
1.639695123940211
 50
195.0618917771049
 51
270.0
 73
     0
 72
     1
 10
-66.41970774795121
 20
19.48322851887795
 11
-63.03476222932252
 21
19.48322851887843
 72
     1
 10
-63.03476222932252
 20
19.48322851887843
 11
-63.03476222932252
 21
18.69796321275484
 97
       18
330
25F
330
2F5
330
2F6
330
2DE
330
2DD
330
2C3
330
2DC
330
2DB
330
2F7
330
2DA
330
2F8
330
2D9
330
2C4
330
25E
330
263
330
262
330
261
330
260
 75
     1
 76
     0
 52
45.0
 41
0.1
 77
     0
 78
     1
 53
45.0
 43
0.0
 44
0.0
 45
-0.0707106781186548
 46
0.0707106781186548
 79
     0
 98
        1
 10
0.0
 20
0.0
  0
HATCH
  5
349
330
A0
100
AcDbEntity
  8
1
  6
Continuous
 62
     2
100
AcDbHatch
 10
0.0
 20
0.0
 30
0.0
210
0.0
220
0.0
230
1.0
  2
_USER
 70
     0
 71
     1
 91
        1
 92
        1
 93
       18
 72
     1
 10
-63.03476222932252
 20
18.69796321275484
 11
-63.84586126679591
 21
18.69796321275484
 72
     1
 10
-63.84586126679591
 20
18.69796321275484
 11
-63.84586126679591
 21
16.42941899506735
 72
     1
 10
-63.84586126679591
 20
16.42941899506735
 11
-65.03865396896362
 21
16.42941899506735
 72
     1
 10
-65.03865396896362
 20
16.42941899506735
 11
-65.03865396896362
 21
18.69796321275484
 72
     1
 10
-65.03865396896362
 20
18.69796321275484
 11
-66.14229326853172
 21
18.69796321275484
 72
     2
 10
-66.14229326853172
 20
17.74344020592875
 40
0.9545230068260899
 50
90.0
 51
109.3371432194321
 73
     1
 72
     2
 10
-66.28896326663542
 20
18.16139518631164
 40
0.5115800601944076
 50
109.3371432194856
 51
151.4785267424228
 73
     1
 72
     2
 10
-65.91160600855403
 20
17.95632375697264
 40
0.9410597353348907
 50
151.4785267423626
 51
208.5214732576695
 73
     1
 72
     2
 10
-66.28896326663542
 20
17.75125232763415
 40
0.5115800601960199
 50
208.5214732576863
 51
246.6277221118451
 73
     1
 72
     2
 10
-66.13252323393232
 20
18.11324434634415
 40
0.9059297849852865
 50
246.6277221118184
 51
288.4480761180817
 73
     1
 72
     2
 10
-66.55069096759422
 20
19.36679012238074
 40
2.227384008972746
 50
288.4480761181335
 51
301.9309089499397
 73
     1
 72
     1
 10
-65.37263592557031
 20
17.47643940323096
 11
-65.37263592557031
 21
16.60392239642764
 72
     2
 10
-66.70856384268703
 20
21.26900470222904
 40
4.852596863498825
 50
74.02000874166129
 51
84.84185523036365
 73
     0
 72
     2
 10
-66.41970774795121
 20
18.06911411900745
 40
1.639695123940448
 50
84.84185523032376
 51
164.9381082228988
 73
     0
 72
     2
 10
-66.83883559141282
 20
17.95632375697264
 40
1.205656168393001
 50
164.9381082229038
 51
195.061891777097
 73
     0
 72
     2
 10
-66.41970774795121
 20
17.84353339493774
 40
1.639695123940211
 50
195.0618917771049
 51
270.0
 73
     0
 72
     1
 10
-66.41970774795121
 20
19.48322851887795
 11
-63.03476222932252
 21
19.48322851887843
 72
     1
 10
-63.03476222932252
 20
19.48322851887843
 11
-63.03476222932252
 21
18.69796321275484
 97
       18
330
25F
330
2F5
330
2F6
330
2DE
330
2DD
330
2C3
330
2DC
330
2DB
330
2F7
330
2DA
330
2F8
330
2D9
330
2C4
330
25E
330
263
330
262
330
261
330
260
 75
     1
 76
     0
 52
45.0
 41
0.1
 77
     0
 78
     1
 53
45.0
 43
0.0
 44
0.0
 45
-0.0707106781186548
 46
0.0707106781186548
 79
     0
 98
        1
 10
0.0
 20
0.0
  0
HATCH
  5
34A
330
A0
100
AcDbEntity
  8
1
  6
Continuous
 62
     2
100
AcDbHatch
 10
0.0
 20
0.0
 30
0.0
210
0.0
220
0.0
230
1.0
  2
_USER
 70
     0
 71
     1
 91
        1
 92
        1
 93
       14
 72
     2
 10
-82.52240922720412
 20
17.84353339493774
 40
1.639695123940503
 50
84.84185523036234
 51
164.9381082228866
 73
     1
 72
     2
 10
-82.94153707066693
 20
17.95632375697264
 40
1.205656168390943
 50
164.9381082228766
 51
195.061891777095
 73
     1
 72
     2
 10
-82.52240922720412
 20
18.06911411900745
 40
1.639695123939386
 50
195.0618917770894
 51
275.1581447696395
 73
     1
 72
     2
 10
-82.81126532194003
 20
21.26900470222904
 40
4.852596863498134
 50
275.1581447696249
 51
285.9799912583529
 73
     1
 72
     1
 10
-81.47533740482223
 20
16.60392239642823
 11
-81.47533740482223
 21
17.47643940323144
 72
     2
 10
-82.6533924468471
 20
19.36679012238133
 40
2.22738400897274
 50
58.0690910500407
 51
71.55192388186722
 73
     0
 72
     2
 10
-82.23522471318631
 20
18.11324434634415
 40
0.9059297849849257
 50
71.55192388184167
 51
113.3722778881288
 73
     0
 72
     2
 10
-82.39166474588833
 20
17.75125232763415
 40
0.5115800601948034
 50
113.3722778881725
 51
151.4785267423044
 73
     0
 72
     2
 10
-82.01430748780803
 20
17.95632375697264
 40
0.9410597353332545
 50
151.4785267422941
 51
208.5214732577331
 73
     0
 72
     2
 10
-82.39166474588833
 20
18.16139518631164
 40
0.5115800601948779
 50
208.5214732576956
 51
246.6277221118009
 73
     0
 72
     2
 10
-82.23522471318631
 20
17.79940316760104
 40
0.9059297849853228
 50
246.6277221118712
 51
288.4480761181465
 73
     0
 72
     2
 10
-82.6533924468471
 20
16.54585739156445
 40
2.227384008973484
 50
288.4480761181328
 51
301.9309089499591
 73
     0
 72
     1
 10
-81.47533740482223
 20
18.43620811071435
 11
-81.47533740482223
 21
19.30872511751764
 72
     2
 10
-82.81126532194003
 20
14.64364281171675
 40
4.852596863498063
 50
74.02000874164737
 51
84.84185523037506
 73
     1
 97
       14
330
2FD
330
2FE
330
2FF
330
300
330
2C5
330
2D6
330
2D5
330
2D4
330
301
330
302
330
2D3
330
303
330
2C6
330
2D2
 75
     1
 76
     0
 52
45.0
 41
0.1
 77
     0
 78
     1
 53
45.0
 43
0.0
 44
0.0
 45
-0.0707106781186548
 46
0.0707106781186548
 79
     0
 98
        1
 10
0.0
 20
0.0
  0
HATCH
  5
34B
330
A0
100
AcDbEntity
  8
1
  6
Continuous
 62
     2
100
AcDbHatch
 10
0.0
 20
0.0
 30
0.0
210
0.0
220
0.0
230
1.0
  2
_USER
 70
     0
 71
     1
 91
        1
 92
        1
 93
       14
 72
     2
 10
-82.52240922720412
 20
17.84353339493774
 40
1.639695123940503
 50
84.84185523036234
 51
164.9381082228866
 73
     1
 72
     2
 10
-82.94153707066693
 20
17.95632375697264
 40
1.205656168390943
 50
164.9381082228766
 51
195.061891777095
 73
     1
 72
     2
 10
-82.52240922720412
 20
18.06911411900745
 40
1.639695123939386
 50
195.0618917770894
 51
275.1581447696395
 73
     1
 72
     2
 10
-82.81126532194003
 20
21.26900470222904
 40
4.852596863498134
 50
275.1581447696249
 51
285.9799912583529
 73
     1
 72
     1
 10
-81.47533740482223
 20
16.60392239642823
 11
-81.47533740482223
 21
17.47643940323144
 72
     2
 10
-82.6533924468471
 20
19.36679012238133
 40
2.22738400897274
 50
58.0690910500407
 51
71.55192388186722
 73
     0
 72
     2
 10
-82.23522471318631
 20
18.11324434634415
 40
0.9059297849849257
 50
71.55192388184167
 51
113.3722778881288
 73
     0
 72
     2
 10
-82.39166474588833
 20
17.75125232763415
 40
0.5115800601948034
 50
113.3722778881725
 51
151.4785267423044
 73
     0
 72
     2
 10
-82.01430748780803
 20
17.95632375697264
 40
0.9410597353332545
 50
151.4785267422941
 51
208.5214732577331
 73
     0
 72
     2
 10
-82.39166474588833
 20
18.16139518631164
 40
0.5115800601948779
 50
208.5214732576956
 51
246.6277221118009
 73
     0
 72
     2
 10
-82.23522471318631
 20
17.79940316760104
 40
0.9059297849853228
 50
246.6277221118712
 51
288.4480761181465
 73
     0
 72
     2
 10
-82.6533924468471
 20
16.54585739156445
 40
2.227384008973484
 50
288.4480761181328
 51
301.9309089499591
 73
     0
 72
     1
 10
-81.47533740482223
 20
18.43620811071435
 11
-81.47533740482223
 21
19.30872511751764
 72
     2
 10
-82.81126532194003
 20
14.64364281171675
 40
4.852596863498063
 50
74.02000874164737
 51
84.84185523037506
 73
     1
 97
       14
330
2FD
330
2FE
330
2FF
330
300
330
2C5
330
2D6
330
2D5
330
2D4
330
301
330
302
330
2D3
330
303
330
2C6
330
2D2
 75
     1
 76
     0
 52
45.0
 41
0.1
 77
     0
 78
     1
 53
45.0
 43
0.0
 44
0.0
 45
-0.0707106781186548
 46
0.0707106781186548
 79
     0
 98
        1
 10
0.0
 20
0.0
  0
ENDBLK
  5
A2
330
A0
100
AcDbEntity
  8
0
100
AcDbBlockEnd
  0
BLOCK
  5
A4
330
A3
100
AcDbEntity
  8
0
100
AcDbBlockBegin
  2
_punkt
 70
     0
 10
34.36203818016038
 20
9.13591899505104
 30
0.0
  3
_punkt
  1

  0
LINE
  5
34C
330
A3
100
AcDbEntity
  8
1
  6
Continuous
 62
     2
100
AcDbLine
 10
34.36203818016038
 20
9.13591899505104
 30
0.0
 11
39.36203818015937
 21
9.13591899505104
 31
0.0
  0
LINE
  5
34D
330
A3
100
AcDbEntity
  8
1
  6
Continuous
 62
     2
100
AcDbLine
 10
34.36203818016038
 20
9.13591899505104
 30
0.0
 11
34.36203818016038
 21
4.13591899505093
 31
0.0
  0
ENDBLK
  5
A5
330
A3
100
AcDbEntity
  8
0
100
AcDbBlockEnd
  0
BLOCK
  5
A9
330
A6
100
AcDbEntity
  8
0
100
AcDbBlockBegin
  2
A4I_CS
 70
     0
 10
34.36203818016038
 20
4.13591899505093
 30
0.0
  3
A4I_CS
  1

  0
INSERT
  5
A7
330
A6
100
AcDbEntity
  8
1
100
AcDbBlockReference
  2
_rahmen
 10
34.36203818016038
 20
4.13591899505093
 30
0.0
  0
INSERT
  5
A8
330
A6
100
AcDbEntity
  8
1
100
AcDbBlockReference
  2
_punkt
 10
34.36203818016038
 20
9.13591899505104
 30
0.0
  0
ENDBLK
  5
AA
330
A6
100
AcDbEntity
  8
0
100
AcDbBlockEnd
  0
BLOCK
  5
B3
330
AB
100
AcDbEntity
  8
0
100
AcDbBlockBegin
  2
1
 70
     0
 10
0.0
 20
0.0
 30
0.0
  3
1
  1

  0
INSERT
  5
AC
330
AB
100
AcDbEntity
  8
0
100
AcDbBlockReference
  2
Gen1
 10
-18.00000000003999
 20
80.00000000004002
 30
0.0
  0
INSERT
  5
AD
330
AB
100
AcDbEntity
  8
0
100
AcDbBlockReference
  2
Back1
 10
-17.1000006198484
 20
145.00000000004
 30
0.0
  0
INSERT
  5
AE
330
AB
100
AcDbEntity
  8
0
100
AcDbBlockReference
  2
Front1
 10
-133.00000000004
 20
145.0000000000401
 30
0.0
  0
INSERT
  5
AF
330
AB
100
AcDbEntity
  8
0
100
AcDbBlockReference
  2
Left1
 10
-75.55000030993415
 20
145.00000000004
 30
0.0
  0
INSERT
  5
B0
330
AB
100
AcDbEntity
  8
0
100
AcDbBlockReference
  2
Right1
 10
-197.4499996900659
 20
145.00000000004
 30
0.0
  0
INSERT
  5
B1
330
AB
100
AcDbEntity
  8
0
100
AcDbBlockReference
  2
Top1
 10
-133.0000000000401
 20
88.48750007151565
 30
0.0
  0
INSERT
  5
B2
330
AB
100
AcDbEntity
  8
0
100
AcDbBlockReference
  2
A4I_CS
 10
34.36203818016038
 20
4.13591899505093
 30
0.0
  0
ENDBLK
  5
B4
330
AB
100
AcDbEntity
  8
0
100
AcDbBlockEnd
  0
BLOCK
  5
151
330
148
100
AcDbEntity
  8
0
100
AcDbBlockBegin
  2
*D17
 70
     1
 10
0.0
 20
0.0
 30
0.0
  3
*D17
  1

  0
LINE
  5
149
330
148
100
AcDbEntity
  8
1
  6
Continuous
 62
     2
100
AcDbLine
 10
-141.5999999900867
 20
168.550968006399
 30
0.0
 11
-134.5999999900867
 21
168.550968006399
 31
0.0
  0
LINE
  5
14A
330
148
100
AcDbEntity
  8
1
  6
Continuous
 62
     2
100
AcDbLine
 10
-134.5999999900867
 20
168.550968006399
 30
0.0
 11
-131.3999999900867
 21
168.550968006399
 31
0.0
  0
LINE
  5
14B
330
148
100
AcDbEntity
  8
1
  6
Continuous
 62
     2
100
AcDbLine
 10
-131.3999999900867
 20
168.550968006399
 30
0.0
 11
-121.080300456988
 21
168.550968006399
 31
0.0
  0
LINE
  5
14C
330
148
100
AcDbEntity
  8
1
  6
Continuous
 62
     2
100
AcDbLine
 10
-134.5999999900867
 20
160.5625004059422
 30
0.0
 11
-134.5999999900867
 21
170.050968006399
 31
0.0
  0
LINE
  5
14D
330
148
100
AcDbEntity
  8
1
  6
Continuous
 62
     2
100
AcDbLine
 10
-131.3999999900867
 20
160.5625004059422
 30
0.0
 11
-131.3999999900867
 21
170.050968006399
 31
0.0
  0
SOLID
  5
14E
330
148
100
AcDbEntity
  8
1
 62
     2
100
AcDbTrace
 10
-138.0999999900867
 20
168.0901842648431
 30
0.0
 11
-138.0999999900867
 21
169.0117517479549
 31
0.0
 12
-134.5999999900867
 22
168.550968006399
 32
0.0
 13
-134.5999999900867
 23
168.550968006399
 33
0.0
  0
SOLID
  5
14F
330
148
100
AcDbEntity
  8
1
 62
     2
100
AcDbTrace
 10
-127.8999999900867
 20
169.0117517479549
 30
0.0
 11
-127.8999999900867
 21
168.0901842648431
 31
0.0
 12
-131.3999999900867
 22
168.550968006399
 32
0.0
 13
-131.3999999900867
 23
168.550968006399
 33
0.0
  0
MTEXT
  5
150
330
148
100
AcDbEntity
  8
1
 62
     3
100
AcDbMText
 10
-127.555300456988
 20
170.900968006399
 30
0.0
 40
3.5
 41
0.0
 71
     7
 72
     1
  1
3,2
  7
CONVERTER_11
 11
0.9999999999970619
 21
2.424068405545306E-6
 31
0.0
 73
     1
 44
0.60024009603842
  0
ENDBLK
  5
152
330
148
100
AcDbEntity
  8
0
100
AcDbBlockEnd
  0
BLOCK
  5
15E
330
155
100
AcDbEntity
  8
0
100
AcDbBlockBegin
  2
*D18
 70
     1
 10
0.0
 20
0.0
 30
0.0
  3
*D18
  1

  0
LINE
  5
156
330
155
100
AcDbEntity
  8
1
  6
Continuous
 62
     2
100
AcDbLine
 10
-140.7999999900865
 20
121.595785757899
 30
0.0
 11
-133.7999999900865
 21
121.595785757899
 31
0.0
  0
LINE
  5
157
330
155
100
AcDbEntity
  8
1
  6
Continuous
 62
     2
100
AcDbLine
 10
-133.7999999900865
 20
121.595785757899
 30
0.0
 11
-132.1999999900865
 21
121.595785757899
 31
0.0
  0
LINE
  5
158
330
155
100
AcDbEntity
  8
1
  6
Continuous
 62
     2
100
AcDbLine
 10
-132.1999999900865
 20
121.595785757899
 30
0.0
 11
-122.446851845854
 21
121.595785757899
 31
0.0
  0
LINE
  5
159
330
155
100
AcDbEntity
  8
1
  6
Continuous
 62
     2
100
AcDbLine
 10
-133.7999999900865
 20
129.43750040598
 30
0.0
 11
-133.7999999900865
 21
120.095785757899
 31
0.0
  0
LINE
  5
15A
330
155
100
AcDbEntity
  8
1
  6
Continuous
 62
     2
100
AcDbLine
 10
-132.1999999900865
 20
129.43750040598
 30
0.0
 11
-132.1999999900865
 21
120.095785757899
 31
0.0
  0
SOLID
  5
15B
330
155
100
AcDbEntity
  8
1
 62
     2
100
AcDbTrace
 10
-137.2999999900865
 20
121.1350020163431
 30
0.0
 11
-137.2999999900865
 21
122.0565694994549
 31
0.0
 12
-133.7999999900865
 22
121.595785757899
 32
0.0
 13
-133.7999999900865
 23
121.595785757899
 33
0.0
  0
SOLID
  5
15C
330
155
100
AcDbEntity
  8
1
 62
     2
100
AcDbTrace
 10
-128.6999999900865
 20
122.0565694994549
 30
0.0
 11
-128.6999999900865
 21
121.1350020163431
 31
0.0
 12
-132.1999999900865
 22
121.595785757899
 32
0.0
 13
-132.1999999900865
 23
121.595785757899
 33
0.0
  0
MTEXT
  5
15D
330
155
100
AcDbEntity
  8
1
 62
     3
100
AcDbMText
 10
-127.871851845854
 20
123.945785757899
 30
0.0
 40
3.5
 41
0.0
 71
     7
 72
     1
  1
1,6
  7
CONVERTER_11
 11
0.9999999999970619
 21
2.424068405545306E-6
 31
0.0
 73
     1
 44
0.60024009603842
  0
ENDBLK
  5
15F
330
155
100
AcDbEntity
  8
0
100
AcDbBlockEnd
  0
BLOCK
  5
169
330
162
100
AcDbEntity
  8
0
100
AcDbBlockBegin
  2
*D19
 70
     1
 10
0.0
 20
0.0
 30
0.0
  3
*D19
  1

  0
LINE
  5
163
330
162
100
AcDbEntity
  8
1
  6
Continuous
 62
     2
100
AcDbLine
 10
-143.750219381801
 20
160.0625004059422
 30
0.0
 11
-143.750219381801
 21
129.93750040598
 31
0.0
  0
LINE
  5
164
330
162
100
AcDbEntity
  8
1
  6
Continuous
 62
     2
100
AcDbLine
 10
-135.0999999900867
 20
160.0625004059422
 30
0.0
 11
-145.250219381801
 21
160.0625004059422
 31
0.0
  0
LINE
  5
165
330
162
100
AcDbEntity
  8
1
  6
Continuous
 62
     2
100
AcDbLine
 10
-134.2999999900865
 20
129.93750040598
 30
0.0
 11
-145.250219381801
 21
129.93750040598
 31
0.0
  0
SOLID
  5
166
330
162
100
AcDbEntity
  8
1
 62
     2
100
AcDbTrace
 10
-143.2894356402451
 20
156.5625004059422
 30
0.0
 11
-144.2110031233569
 21
156.5625004059422
 31
0.0
 12
-143.750219381801
 22
160.0625004059422
 32
0.0
 13
-143.750219381801
 23
160.0625004059422
 33
0.0
  0
SOLID
  5
167
330
162
100
AcDbEntity
  8
1
 62
     2
100
AcDbTrace
 10
-144.2110031233569
 20
133.43750040598
 30
0.0
 11
-143.2894356402451
 21
133.43750040598
 31
0.0
 12
-143.750219381801
 22
129.93750040598
 32
0.0
 13
-143.750219381801
 23
129.93750040598
 33
0.0
  0
MTEXT
  5
168
330
162
100
AcDbEntity
  8
1
 62
     3
100
AcDbMText
 10
-146.100219381801
 20
141.909227248512
 30
0.0
 40
3.5
 41
0.0
 71
     7
 72
     1
  1
30,13
  7
CONVERTER_11
 11
0.0
 21
1.0
 31
0.0
 73
     1
 44
0.60024009603842
  0
ENDBLK
  5
16A
330
162
100
AcDbEntity
  8
0
100
AcDbBlockEnd
  0
BLOCK
  5
211
330
20A
100
AcDbEntity
  8
0
100
AcDbBlockBegin
  2
*D20
 70
     1
 10
0.0
 20
0.0
 30
0.0
  3
*D20
  1

  0
LINE
  5
20B
330
20A
100
AcDbEntity
  8
1
  6
Continuous
 62
     2
100
AcDbLine
 10
-143.750219381801
 20
99.93749986912242
 30
0.0
 11
-143.750219381801
 21
77.03749986912142
 31
0.0
  0
LINE
  5
20C
330
20A
100
AcDbEntity
  8
1
  6
Continuous
 62
     2
100
AcDbLine
 10
-135.0999999900867
 20
99.93749986912242
 30
0.0
 11
-145.250219381801
 21
99.93749986912242
 31
0.0
  0
LINE
  5
20D
330
20A
100
AcDbEntity
  8
1
  6
Continuous
 62
     2
100
AcDbLine
 10
-135.0999999900867
 20
77.03749986912142
 30
0.0
 11
-145.250219381801
 21
77.03749986912142
 31
0.0
  0
SOLID
  5
20E
330
20A
100
AcDbEntity
  8
1
 62
     2
100
AcDbTrace
 10
-143.2894356402451
 20
96.43749986912242
 30
0.0
 11
-144.2110031233569
 21
96.43749986912242
 31
0.0
 12
-143.750219381801
 22
99.93749986912242
 32
0.0
 13
-143.750219381801
 23
99.93749986912242
 33
0.0
  0
SOLID
  5
20F
330
20A
100
AcDbEntity
  8
1
 62
     2
100
AcDbTrace
 10
-144.2110031233569
 20
80.53749986912142
 30
0.0
 11
-143.2894356402451
 21
80.53749986912142
 31
0.0
 12
-143.750219381801
 22
77.03749986912142
 32
0.0
 13
-143.750219381801
 23
77.03749986912142
 33
0.0
  0
MTEXT
  5
210
330
20A
100
AcDbEntity
  8
1
 62
     3
100
AcDbMText
 10
-146.100219381801
 20
83.9146319543441
 30
0.0
 40
3.5
 41
0.0
 71
     7
 72
     1
  1
22,9
  7
CONVERTER_11
 11
0.0
 21
1.0
 31
0.0
 73
     1
 44
0.60024009603842
  0
ENDBLK
  5
212
330
20A
100
AcDbEntity
  8
0
100
AcDbBlockEnd
  0
ENDSEC
  0
SECTION
  2
ENTITIES
  0
INSERT
  5
B5
330
1F
100
AcDbEntity
  8
1
100
AcDbBlockReference
  2
1
 10
0.0
 20
0.0
 30
0.0
  0
ENDSEC
  0
SECTION
  2
OBJECTS
  0
DICTIONARY
  5
C
330
0
100
AcDbDictionary
281
     1
  3
ACAD_DETAILVIEWSTYLE
350
393
  3
ACAD_GROUP
350
D
  3
ACAD_LAYOUT
350
1A
  3
ACAD_MATERIAL
350
43
  3
ACAD_MLEADERSTYLE
350
6B
  3
ACAD_MLINESTYLE
350
17
  3
ACAD_PLOTSETTINGS
350
19
  3
ACAD_PLOTSTYLENAME
350
E
  3
ACAD_SCALELIST
350
47
  3
ACAD_SECTIONVIEWSTYLE
350
394
  3
ACAD_TABLESTYLE
350
69
  3
ACAD_VISUALSTYLE
350
2A
  3
ACDB_RECOMPOSE_DATA
350
390
  3
AcDbVariableDictionary
350
350
  0
DICTIONARY
  5
34E
330
8
100
AcDbDictionary
280
     1
281
     1
  3
ACAD_XREC_ROUNDTRIP
360
34F
  0
DICTIONARY
  5
393
102
{ACAD_REACTORS
330
C
102
}
330
C
100
AcDbDictionary
281
     1
  0
DICTIONARY
  5
D
102
{ACAD_REACTORS
330
C
102
}
330
C
100
AcDbDictionary
281
     1
  0
DICTIONARY
  5
1A
102
{ACAD_REACTORS
330
C
102
}
330
C
100
AcDbDictionary
281
     1
  3
Layout1
350
1E
  3
Layout2
350
26
  3
Model
350
22
  0
DICTIONARY
  5
43
102
{ACAD_REACTORS
330
C
102
}
330
C
100
AcDbDictionary
281
     1
  3
ByBlock
350
45
  3
ByLayer
350
44
  3
Global
350
46
  0
DICTIONARY
  5
6B
102
{ACAD_REACTORS
330
C
102
}
330
C
100
AcDbDictionary
281
     1
  3
Standard
350
6C
  0
DICTIONARY
  5
17
102
{ACAD_REACTORS
330
C
102
}
330
C
100
AcDbDictionary
281
     1
  3
Standard
350
18
  0
DICTIONARY
  5
19
102
{ACAD_REACTORS
330
C
102
}
330
C
100
AcDbDictionary
281
     1
  0
ACDBDICTIONARYWDFLT
  5
E
102
{ACAD_REACTORS
330
C
102
}
330
C
100
AcDbDictionary
281
     1
  3
Normal
350
F
100
AcDbDictionaryWithDefault
340
F
  0
DICTIONARY
  5
47
102
{ACAD_REACTORS
330
C
102
}
330
C
100
AcDbDictionary
281
     1
  3
A0
350
48
  3
A1
350
49
  3
A2
350
4A
  3
A3
350
4B
  3
A4
350
4C
  3
A5
350
4D
  3
A6
350
4E
  3
A7
350
4F
  3
A8
350
50
  3
A9
350
51
  3
B0
350
52
  3
B1
350
53
  3
B2
350
54
  3
B3
350
55
  3
B4
350
56
  3
B5
350
57
  3
B6
350
58
  3
B7
350
59
  3
B8
350
5A
  3
B9
350
5B
  3
C0
350
5C
  3
C1
350
5D
  3
C2
350
5E
  3
C3
350
5F
  3
C4
350
60
  3
C5
350
61
  3
C6
350
62
  3
C7
350
63
  3
C8
350
64
  3
C9
350
65
  3
D0
350
66
  3
D1
350
67
  3
D2
350
68
  0
DICTIONARY
  5
394
102
{ACAD_REACTORS
330
C
102
}
330
C
100
AcDbDictionary
281
     1
  0
DICTIONARY
  5
69
102
{ACAD_REACTORS
330
C
102
}
330
C
100
AcDbDictionary
281
     1
  3
Standard
350
6A
  0
DICTIONARY
  5
2A
102
{ACAD_REACTORS
330
C
102
}
330
C
100
AcDbDictionary
281
     1
  3
2dWireframe
350
2F
  3
Basic
350
32
  3
Brighten
350
36
  3
ColorChange
350
3A
  3
Conceptual
350
34
  3
Dim
350
35
  3
EdgeColorOff
350
3D
  3
Facepattern
350
39
  3
Flat
350
2B
  3
FlatWithEdges
350
2C
  3
Gouraud
350
2D
  3
GouraudWithEdges
350
2E
  3
Hidden
350
31
  3
JitterOff
350
3B
  3
Linepattern
350
38
  3
OverhangOff
350
3C
  3
Realistic
350
33
  3
Shaded
350
42
  3
Shaded with edges
350
41
  3
Shades of Gray
350
3E
  3
Sketchy
350
3F
  3
Thicken
350
37
  3
Wireframe
350
30
  3
X-Ray
350
40
  0
XRECORD
  5
390
102
{ACAD_REACTORS
330
C
102
}
330
C
100
AcDbXrecord
280
     1
 90
        1
330
6A
  0
DICTIONARY
  5
350
102
{ACAD_REACTORS
330
C
102
}
330
C
100
AcDbDictionary
281
     1
  3
CANNOSCALE
350
351
  3
CMLEADERSTYLE
350
392
  3
CTABLESTYLE
350
391
  3
MSLTSCALE
350
352
  3
XCLIPFRAME
350
353
  0
XRECORD
  5
34F
102
{ACAD_REACTORS
330
34E
102
}
330
34E
100
AcDbXrecord
280
     1
102
VTR_0.000_0.000_1.000_1.000_VISUALSTYLE
340
2F
102
VTR_0.000_0.000_1.000_1.000_GRIDDISPLAY
 70
     3
102
VTR_0.000_0.000_1.000_1.000_GRIDMAJOR
 70
     5
102
VTR_0.000_0.000_1.000_1.000_DEFAULTLIGHTING
280
     1
102
VTR_0.000_0.000_1.000_1.000_DEFAULTLIGHTINGTYPE
 70
     1
102
VTR_0.000_0.000_1.000_1.000_BRIGHTNESS
141
0.0
102
VTR_0.000_0.000_1.000_1.000_CONTRAST
142
0.0
  0
LAYOUT
  5
1E
102
{ACAD_REACTORS
330
1A
102
}
330
1A
100
AcDbPlotSettings
  1

  2
none_device
  4

  6

 40
0.0
 41
0.0
 42
0.0
 43
0.0
 44
0.0
 45
0.0
 46
0.0
 47
0.0
 48
0.0
 49
0.0
140
0.0
141
0.0
142
1.0
143
1.0
 70
   688
 72
     0
 73
     0
 74
     5
  7

 75
    16
 76
     0
 77
     2
 78
   300
147
1.0
148
0.0
149
0.0
100
AcDbLayout
  1
Layout1
 70
     1
 71
     1
 10
0.0
 20
0.0
 11
12.0
 21
9.0
 12
0.0
 22
0.0
 32
0.0
 14
1.00000000000000E+20
 24
1.00000000000000E+20
 34
1.00000000000000E+20
 15
-1.00000000000000E+20
 25
-1.00000000000000E+20
 35
-1.00000000000000E+20
146
0.0
 13
0.0
 23
0.0
 33
0.0
 16
1.0
 26
0.0
 36
0.0
 17
0.0
 27
1.0
 37
0.0
 76
     0
330
1B
  0
LAYOUT
  5
26
102
{ACAD_REACTORS
330
1A
102
}
330
1A
100
AcDbPlotSettings
  1

  2
none_device
  4

  6

 40
0.0
 41
0.0
 42
0.0
 43
0.0
 44
0.0
 45
0.0
 46
0.0
 47
0.0
 48
0.0
 49
0.0
140
0.0
141
0.0
142
1.0
143
1.0
 70
   688
 72
     0
 73
     0
 74
     5
  7

 75
    16
 76
     0
 77
     2
 78
   300
147
1.0
148
0.0
149
0.0
100
AcDbLayout
  1
Layout2
 70
     1
 71
     2
 10
0.0
 20
0.0
 11
0.0
 21
0.0
 12
0.0
 22
0.0
 32
0.0
 14
0.0
 24
0.0
 34
0.0
 15
0.0
 25
0.0
 35
0.0
146
0.0
 13
0.0
 23
0.0
 33
0.0
 16
1.0
 26
0.0
 36
0.0
 17
0.0
 27
1.0
 37
0.0
 76
     0
330
23
  0
LAYOUT
  5
22
102
{ACAD_REACTORS
330
1A
102
}
330
1A
100
AcDbPlotSettings
  1

  2
none_device
  4
Letter_(8.50_x_11.00_Inches)
  6

 40
6.35
 41
6.35
 42
6.35000508
 43
6.35000508
 44
215.9
 45
279.4
 46
0.0
 47
0.0
 48
0.0
 49
0.0
140
0.0
141
0.0
142
1.0
143
1.0
 70
  1712
 72
     0
 73
     0
 74
     0
  7

 75
     0
 76
     0
 77
     2
 78
   300
147
1.0
148
0.0
149
0.0
100
AcDbLayout
  1
Model
 70
     1
 71
     0
 10
0.0
 20
0.0
 11
12.0
 21
9.0
 12
0.0
 22
0.0
 32
0.0
 14
-257.6379618198387
 24
4.13591899505093
 34
0.0
 15
39.36203818015937
 25
214.135918995051
 35
0.0
146
0.0
 13
0.0
 23
0.0
 33
0.0
 16
1.0
 26
0.0
 36
0.0
 17
0.0
 27
1.0
 37
0.0
 76
     0
330
1F
331
29
  0
MATERIAL
  5
45
102
{ACAD_REACTORS
330
43
102
}
102
{ACAD_XDICTIONARY
360
386
102
}
330
43
100
AcDbMaterial
  1
ByBlock
  0
MATERIAL
  5
44
102
{ACAD_REACTORS
330
43
102
}
102
{ACAD_XDICTIONARY
360
384
102
}
330
43
100
AcDbMaterial
  1
ByLayer
  0
MATERIAL
  5
46
102
{ACAD_REACTORS
330
43
102
}
102
{ACAD_XDICTIONARY
360
388
102
}
330
43
100
AcDbMaterial
  1
Global
  0
MLEADERSTYLE
  5
6C
102
{ACAD_REACTORS
330
6B
102
}
102
{ACAD_XDICTIONARY
360
38E
102
}
330
6B
100
AcDbMLeaderStyle
170
     2
171
     1
172
     0
 90
        2
 40
0.0
 41
0.0
173
     1
 91
-1056964608
340
14
 92
       -2
290
     1
 42
0.09
291
     1
 43
0.36
  3
Standard
341
0
 44
0.18
300

342
11
174
     1
178
     6
175
     1
176
     0
 93
-1056964608
 45
0.18
292
     0
297
     0
 46
0.18
343
0
 94
-1056964608
 47
1.0
 49
1.0
140
1.0
293
     1
141
0.0
294
     1
177
     0
142
1.0
295
     0
296
     0
143
0.125
1001
ACAD_MLEADERVER
1070
     2
  0
MLINESTYLE
  5
18
102
{ACAD_REACTORS
330
17
102
}
330
17
100
AcDbMlineStyle
  2
Standard
 70
     0
  3

 62
   256
 51
90.0
 52
90.0
 71
     2
 49
0.5
 62
   256
  6
BYLAYER
 49
-0.5
 62
   256
  6
BYLAYER
  0
ACDBPLACEHOLDER
  5
F
102
{ACAD_REACTORS
330
E
102
}
330
E
  0
SCALE
  5
48
102
{ACAD_REACTORS
330
47
102
}
330
47
100
AcDbScale
 70
     0
300
1:1
140
1.0
141
1.0
290
     1
  0
SCALE
  5
49
102
{ACAD_REACTORS
330
47
102
}
330
47
100
AcDbScale
 70
     0
300
1:2
140
1.0
141
2.0
290
     0
  0
SCALE
  5
4A
102
{ACAD_REACTORS
330
47
102
}
330
47
100
AcDbScale
 70
     0
300
1:4
140
1.0
141
4.0
290
     0
  0
SCALE
  5
4B
102
{ACAD_REACTORS
330
47
102
}
330
47
100
AcDbScale
 70
     0
300
1:5
140
1.0
141
5.0
290
     0
  0
SCALE
  5
4C
102
{ACAD_REACTORS
330
47
102
}
330
47
100
AcDbScale
 70
     0
300
1:8
140
1.0
141
8.0
290
     0
  0
SCALE
  5
4D
102
{ACAD_REACTORS
330
47
102
}
330
47
100
AcDbScale
 70
     0
300
1:10
140
1.0
141
10.0
290
     0
  0
SCALE
  5
4E
102
{ACAD_REACTORS
330
47
102
}
330
47
100
AcDbScale
 70
     0
300
1:16
140
1.0
141
16.0
290
     0
  0
SCALE
  5
4F
102
{ACAD_REACTORS
330
47
102
}
330
47
100
AcDbScale
 70
     0
300
1:20
140
1.0
141
20.0
290
     0
  0
SCALE
  5
50
102
{ACAD_REACTORS
330
47
102
}
330
47
100
AcDbScale
 70
     0
300
1:30
140
1.0
141
30.0
290
     0
  0
SCALE
  5
51
102
{ACAD_REACTORS
330
47
102
}
330
47
100
AcDbScale
 70
     0
300
1:40
140
1.0
141
40.0
290
     0
  0
SCALE
  5
52
102
{ACAD_REACTORS
330
47
102
}
330
47
100
AcDbScale
 70
     0
300
1:50
140
1.0
141
50.0
290
     0
  0
SCALE
  5
53
102
{ACAD_REACTORS
330
47
102
}
330
47
100
AcDbScale
 70
     0
300
1:100
140
1.0
141
100.0
290
     0
  0
SCALE
  5
54
102
{ACAD_REACTORS
330
47
102
}
330
47
100
AcDbScale
 70
     0
300
2:1
140
2.0
141
1.0
290
     0
  0
SCALE
  5
55
102
{ACAD_REACTORS
330
47
102
}
330
47
100
AcDbScale
 70
     0
300
4:1
140
4.0
141
1.0
290
     0
  0
SCALE
  5
56
102
{ACAD_REACTORS
330
47
102
}
330
47
100
AcDbScale
 70
     0
300
8:1
140
8.0
141
1.0
290
     0
  0
SCALE
  5
57
102
{ACAD_REACTORS
330
47
102
}
330
47
100
AcDbScale
 70
     0
300
10:1
140
10.0
141
1.0
290
     0
  0
SCALE
  5
58
102
{ACAD_REACTORS
330
47
102
}
330
47
100
AcDbScale
 70
     0
300
100:1
140
100.0
141
1.0
290
     0
  0
SCALE
  5
59
102
{ACAD_REACTORS
330
47
102
}
330
47
100
AcDbScale
 70
     0
300
1/128" = 1'-0"
140
0.0078125
141
12.0
290
     0
  0
SCALE
  5
5A
102
{ACAD_REACTORS
330
47
102
}
330
47
100
AcDbScale
 70
     0
300
1/64" = 1'-0"
140
0.015625
141
12.0
290
     0
  0
SCALE
  5
5B
102
{ACAD_REACTORS
330
47
102
}
330
47
100
AcDbScale
 70
     0
300
1/32" = 1'-0"
140
0.03125
141
12.0
290
     0
  0
SCALE
  5
5C
102
{ACAD_REACTORS
330
47
102
}
330
47
100
AcDbScale
 70
     0
300
1/16" = 1'-0"
140
0.0625
141
12.0
290
     0
  0
SCALE
  5
5D
102
{ACAD_REACTORS
330
47
102
}
330
47
100
AcDbScale
 70
     0
300
3/32" = 1'-0"
140
0.09375
141
12.0
290
     0
  0
SCALE
  5
5E
102
{ACAD_REACTORS
330
47
102
}
330
47
100
AcDbScale
 70
     0
300
1/8" = 1'-0"
140
0.125
141
12.0
290
     0
  0
SCALE
  5
5F
102
{ACAD_REACTORS
330
47
102
}
330
47
100
AcDbScale
 70
     0
300
3/16" = 1'-0"
140
0.1875
141
12.0
290
     0
  0
SCALE
  5
60
102
{ACAD_REACTORS
330
47
102
}
330
47
100
AcDbScale
 70
     0
300
1/4" = 1'-0"
140
0.25
141
12.0
290
     0
  0
SCALE
  5
61
102
{ACAD_REACTORS
330
47
102
}
330
47
100
AcDbScale
 70
     0
300
3/8" = 1'-0"
140
0.375
141
12.0
290
     0
  0
SCALE
  5
62
102
{ACAD_REACTORS
330
47
102
}
330
47
100
AcDbScale
 70
     0
300
1/2" = 1'-0"
140
0.5
141
12.0
290
     0
  0
SCALE
  5
63
102
{ACAD_REACTORS
330
47
102
}
330
47
100
AcDbScale
 70
     0
300
3/4" = 1'-0"
140
0.75
141
12.0
290
     0
  0
SCALE
  5
64
102
{ACAD_REACTORS
330
47
102
}
330
47
100
AcDbScale
 70
     0
300
1" = 1'-0"
140
1.0
141
12.0
290
     0
  0
SCALE
  5
65
102
{ACAD_REACTORS
330
47
102
}
330
47
100
AcDbScale
 70
     0
300
1-1/2" = 1'-0"
140
1.5
141
12.0
290
     0
  0
SCALE
  5
66
102
{ACAD_REACTORS
330
47
102
}
330
47
100
AcDbScale
 70
     0
300
3" = 1'-0"
140
3.0
141
12.0
290
     0
  0
SCALE
  5
67
102
{ACAD_REACTORS
330
47
102
}
330
47
100
AcDbScale
 70
     0
300
6" = 1'-0"
140
6.0
141
12.0
290
     0
  0
SCALE
  5
68
102
{ACAD_REACTORS
330
47
102
}
330
47
100
AcDbScale
 70
     0
300
1'-0" = 1'-0"
140
12.0
141
12.0
290
     0
  0
TABLESTYLE
  5
6A
102
{ACAD_REACTORS
330
69
102
}
102
{ACAD_XDICTIONARY
360
38A
102
}
330
69
100
AcDbTableStyle
  3
Standard
 70
     0
 71
     0
 40
0.06
 41
0.06
280
     0
281
     0
  7
Standard
140
0.18
170
     2
 62
     0
 63
   257
283
     0
274
    -2
284
     1
 64
     0
275
    -2
285
     1
 65
     0
276
    -2
286
     1
 66
     0
277
    -2
287
     1
 67
     0
278
    -2
288
     1
 68
     0
279
    -2
289
     1
 69
     0
  7
Standard
140
0.25
170
     5
 62
     0
 63
   257
283
     0
274
    -2
284
     1
 64
     0
275
    -2
285
     1
 65
     0
276
    -2
286
     1
 66
     0
277
    -2
287
     1
 67
     0
278
    -2
288
     1
 68
     0
279
    -2
289
     1
 69
     0
  7
Standard
140
0.18
170
     5
 62
     0
 63
   257
283
     0
274
    -2
284
     1
 64
     0
275
    -2
285
     1
 65
     0
276
    -2
286
     1
 66
     0
277
    -2
287
     1
 67
     0
278
    -2
288
     1
 68
     0
279
    -2
289
     1
 69
     0
  0
VISUALSTYLE
  5
2F
102
{ACAD_REACTORS
330
2A
102
}
102
{ACAD_XDICTIONARY
360
35C
102
}
330
2A
100
AcDbVisualStyle
  2
2dWireframe
 70
     4
 71
     0
 72
     2
 73
     0
 90
        0
 40
0.6
 41
30.0
 62
     5
 63
     7
421
 16777215
 74
     1
 91
        4
 64
     7
 65
   257
 75
     1
175
     1
 42
1.0
 92
        0
 66
   257
 43
1.0
 76
     1
 77
     6
 78
     2
 67
     7
 79
     5
170
     0
171
     0
290
     0
174
     0
 93
        1
 44
0.0
173
     0
291
     0
 45
0.0
1001
ACAD
1000
AcDbSavedByObjectVersion
1070
     0
  0
VISUALSTYLE
  5
32
102
{ACAD_REACTORS
330
2A
102
}
102
{ACAD_XDICTIONARY
360
362
102
}
330
2A
100
AcDbVisualStyle
  2
Basic
 70
     7
 71
     1
 72
     0
 73
     1
 90
        0
 40
0.6
 41
30.0
 62
     5
 63
     7
421
 16777215
 74
     0
 91
        4
 64
     7
 65
   257
 75
     1
175
     1
 42
1.0
 92
        8
 66
     7
 43
1.0
 76
     1
 77
     6
 78
     2
 67
     7
 79
     5
170
     0
171
     0
290
     0
174
     0
 93
        1
 44
0.0
173
     0
291
     1
 45
0.0
1001
ACAD
1000
AcDbSavedByObjectVersion
1070
     0
  0
VISUALSTYLE
  5
36
102
{ACAD_REACTORS
330
2A
102
}
102
{ACAD_XDICTIONARY
360
36A
102
}
330
2A
100
AcDbVisualStyle
  2
Brighten
 70
    12
 71
     2
 72
     2
 73
     0
 90
        0
 40
0.6
 41
30.0
 62
     5
 63
     7
421
 16777215
 74
     1
 91
        4
 64
     7
 65
   257
 75
     1
175
     1
 42
1.0
 92
        8
 66
     7
 43
1.0
 76
     1
 77
     6
 78
     2
 67
     7
 79
     5
170
     0
171
     0
290
     0
174
     0
 93
        1
 44
50.0
173
     0
291
     1
 45
0.0
1001
ACAD
1000
AcDbSavedByObjectVersion
1070
     0
  0
VISUALSTYLE
  5
3A
102
{ACAD_REACTORS
330
2A
102
}
102
{ACAD_XDICTIONARY
360
372
102
}
330
2A
100
AcDbVisualStyle
  2
ColorChange
 70
    16
 71
     2
 72
     2
 73
     3
 90
        0
 40
0.6
 41
30.0
 62
     5
 63
     8
421
  8421504
 74
     1
 91
        4
 64
     7
 65
   257
 75
     1
175
     1
 42
1.0
 92
        8
 66
     8
424
  8421504
 43
1.0
 76
     1
 77
     6
 78
     2
 67
     7
 79
     5
170
     0
171
     0
290
     0
174
     0
 93
        1
 44
0.0
173
     0
291
     1
 45
0.0
1001
ACAD
1000
AcDbSavedByObjectVersion
1070
     0
  0
VISUALSTYLE
  5
34
102
{ACAD_REACTORS
330
2A
102
}
102
{ACAD_XDICTIONARY
360
366
102
}
330
2A
100
AcDbVisualStyle
  2
Conceptual
 70
     9
 71
     3
 72
     2
 73
     0
 90
        0
 40
0.6
 41
30.0
 62
     5
 63
     7
421
 16777215
 74
     2
 91
        2
 64
     7
 65
   257
 75
     1
175
     1
 42
179.0
 92
        8
 66
     7
 43
1.0
 76
     1
 77
     6
 78
     2
 67
     7
 79
     3
170
     0
171
     0
290
     0
174
     0
 93
        1
 44
0.0
173
     0
291
     0
 45
0.0
1001
ACAD
1000
AcDbSavedByObjectVersion
1070
     0
  0
VISUALSTYLE
  5
35
102
{ACAD_REACTORS
330
2A
102
}
102
{ACAD_XDICTIONARY
360
368
102
}
330
2A
100
AcDbVisualStyle
  2
Dim
 70
    11
 71
     2
 72
     2
 73
     0
 90
        0
 40
0.6
 41
30.0
 62
     5
 63
     7
421
 16777215
 74
     1
 91
        4
 64
     7
 65
   257
 75
     1
175
     1
 42
1.0
 92
        8
 66
     7
 43
1.0
 76
     1
 77
     6
 78
     2
 67
     7
 79
     5
170
     0
171
     0
290
     0
174
     0
 93
        1
 44
-50.0
173
     0
291
     1
 45
0.0
1001
ACAD
1000
AcDbSavedByObjectVersion
1070
     0
  0
VISUALSTYLE
  5
3D
102
{ACAD_REACTORS
330
2A
102
}
102
{ACAD_XDICTIONARY
360
378
102
}
330
2A
100
AcDbVisualStyle
  2
EdgeColorOff
 70
    22
 71
     2
 72
     2
 73
     0
 90
        0
 40
0.6
 41
30.0
 62
     5
 63
     7
421
 16777215
 74
     1
 91
        4
 64
     7
 65
   257
 75
     1
175
     1
 42
1.0
 92
        8
 66
     7
 43
1.0
 76
     1
 77
     6
 78
     2
 67
     7
 79
     5
170
     0
171
     0
290
     0
174
     0
 93
        1
 44
0.0
173
     0
291
     1
 45
0.0
1001
ACAD
1000
AcDbSavedByObjectVersion
1070
     0
  0
VISUALSTYLE
  5
39
102
{ACAD_REACTORS
330
2A
102
}
102
{ACAD_XDICTIONARY
360
370
102
}
330
2A
100
AcDbVisualStyle
  2
Facepattern
 70
    15
 71
     2
 72
     2
 73
     0
 90
        0
 40
0.6
 41
30.0
 62
     5
 63
     7
421
 16777215
 74
     1
 91
        4
 64
     7
 65
   257
 75
     1
175
     1
 42
1.0
 92
        8
 66
     7
 43
1.0
 76
     1
 77
     6
 78
     2
 67
     7
 79
     5
170
     0
171
     0
290
     0
174
     0
 93
        1
 44
0.0
173
     0
291
     1
 45
0.0
1001
ACAD
1000
AcDbSavedByObjectVersion
1070
     0
  0
VISUALSTYLE
  5
2B
102
{ACAD_REACTORS
330
2A
102
}
102
{ACAD_XDICTIONARY
360
354
102
}
330
2A
100
AcDbVisualStyle
  2
Flat
 70
     0
 71
     2
 72
     1
 73
     1
 90
        2
 40
0.6
 41
30.0
 62
     5
 63
     7
421
 16777215
 74
     0
 91
        0
 64
     7
 65
   257
 75
     1
175
     1
 42
1.0
 92
        8
 66
     7
 43
1.0
 76
     1
 77
     6
 78
     2
 67
     7
 79
     5
170
     0
171
     0
290
     0
174
     0
 93
       13
 44
0.0
173
     0
291
     1
 45
0.0
1001
ACAD
1000
AcDbSavedByObjectVersion
1070
     0
  0
VISUALSTYLE
  5
2C
102
{ACAD_REACTORS
330
2A
102
}
102
{ACAD_XDICTIONARY
360
356
102
}
330
2A
100
AcDbVisualStyle
  2
FlatWithEdges
 70
     1
 71
     2
 72
     1
 73
     1
 90
        2
 40
0.6
 41
30.0
 62
     5
 63
     7
421
 16777215
 74
     1
 91
        0
 64
     7
 65
   257
 75
     1
175
     1
 42
1.0
 92
        0
 66
   257
 43
1.0
 76
     1
 77
     6
 78
     2
 67
     7
 79
     5
170
     0
171
     0
290
     0
174
     0
 93
       13
 44
0.0
173
     0
291
     1
 45
0.0
1001
ACAD
1000
AcDbSavedByObjectVersion
1070
     0
  0
VISUALSTYLE
  5
2D
102
{ACAD_REACTORS
330
2A
102
}
102
{ACAD_XDICTIONARY
360
358
102
}
330
2A
100
AcDbVisualStyle
  2
Gouraud
 70
     2
 71
     2
 72
     2
 73
     1
 90
        2
 40
0.6
 41
30.0
 62
     5
 63
     7
421
 16777215
 74
     0
 91
        0
 64
     7
 65
   257
 75
     1
175
     1
 42
1.0
 92
        0
 66
     7
 43
1.0
 76
     1
 77
     6
 78
     2
 67
     7
 79
     5
170
     0
171
     0
290
     0
174
     0
 93
       13
 44
0.0
173
     0
291
     1
 45
0.0
1001
ACAD
1000
AcDbSavedByObjectVersion
1070
     0
  0
VISUALSTYLE
  5
2E
102
{ACAD_REACTORS
330
2A
102
}
102
{ACAD_XDICTIONARY
360
35A
102
}
330
2A
100
AcDbVisualStyle
  2
GouraudWithEdges
 70
     3
 71
     2
 72
     2
 73
     1
 90
        2
 40
0.6
 41
30.0
 62
     5
 63
     7
421
 16777215
 74
     1
 91
        0
 64
     7
 65
   257
 75
     1
175
     1
 42
1.0
 92
        0
 66
   257
 43
1.0
 76
     1
 77
     6
 78
     2
 67
     7
 79
     5
170
     0
171
     0
290
     0
174
     0
 93
       13
 44
0.0
173
     0
291
     1
 45
0.0
1001
ACAD
1000
AcDbSavedByObjectVersion
1070
     0
  0
VISUALSTYLE
  5
31
102
{ACAD_REACTORS
330
2A
102
}
102
{ACAD_XDICTIONARY
360
360
102
}
330
2A
100
AcDbVisualStyle
  2
Hidden
 70
     6
 71
     1
 72
     2
 73
     2
 90
        0
 40
0.6
 41
30.0
 62
     5
 63
     7
421
 16777215
 74
     2
 91
        2
 64
     7
 65
   257
 75
     2
175
     1
 42
40.0
 92
        0
 66
   257
 43
1.0
 76
     1
 77
     6
 78
     2
 67
     7
 79
     3
170
     0
171
     0
290
     0
174
     0
 93
        1
 44
0.0
173
     0
291
     0
 45
0.0
1001
ACAD
1000
AcDbSavedByObjectVersion
1070
     0
  0
VISUALSTYLE
  5
3B
102
{ACAD_REACTORS
330
2A
102
}
102
{ACAD_XDICTIONARY
360
374
102
}
330
2A
100
AcDbVisualStyle
  2
JitterOff
 70
    20
 71
     2
 72
     2
 73
     0
 90
        0
 40
0.6
 41
30.0
 62
     5
 63
     7
421
 16777215
 74
     1
 91
        4
 64
     7
 65
   257
 75
     1
175
     1
 42
1.0
 92
       10
 66
     7
 43
1.0
 76
     1
 77
     6
 78
     2
 67
     7
 79
     5
170
     0
171
     0
290
     0
174
     0
 93
        1
 44
0.0
173
     0
291
     1
 45
0.0
1001
ACAD
1000
AcDbSavedByObjectVersion
1070
     0
  0
VISUALSTYLE
  5
38
102
{ACAD_REACTORS
330
2A
102
}
102
{ACAD_XDICTIONARY
360
36E
102
}
330
2A
100
AcDbVisualStyle
  2
Linepattern
 70
    14
 71
     2
 72
     2
 73
     0
 90
        0
 40
0.6
 41
30.0
 62
     5
 63
     7
421
 16777215
 74
     1
 91
        4
 64
     7
 65
   257
 75
     7
175
     7
 42
1.0
 92
        8
 66
     7
 43
1.0
 76
     1
 77
     6
 78
     2
 67
     7
 79
     5
170
     0
171
     0
290
     0
174
     0
 93
        1
 44
0.0
173
     0
291
     1
 45
0.0
1001
ACAD
1000
AcDbSavedByObjectVersion
1070
     0
  0
VISUALSTYLE
  5
3C
102
{ACAD_REACTORS
330
2A
102
}
102
{ACAD_XDICTIONARY
360
376
102
}
330
2A
100
AcDbVisualStyle
  2
OverhangOff
 70
    21
 71
     2
 72
     2
 73
     0
 90
        0
 40
0.6
 41
30.0
 62
     5
 63
     7
421
 16777215
 74
     1
 91
        4
 64
     7
 65
   257
 75
     1
175
     1
 42
1.0
 92
        9
 66
     7
 43
1.0
 76
     1
 77
     6
 78
     2
 67
     7
 79
     5
170
     0
171
     0
290
     0
174
     0
 93
        1
 44
0.0
173
     0
291
     1
 45
0.0
1001
ACAD
1000
AcDbSavedByObjectVersion
1070
     0
  0
VISUALSTYLE
  5
33
102
{ACAD_REACTORS
330
2A
102
}
102
{ACAD_XDICTIONARY
360
364
102
}
330
2A
100
AcDbVisualStyle
  2
Realistic
 70
     8
 71
     2
 72
     3
 73
     0
 90
        2
 40
0.6
 41
30.0
 62
     5
 63
     7
421
 16777215
 74
     0
 91
        0
 64
     7
 65
   257
 75
     1
175
     1
 42
1.0
 92
        8
 66
   257
 43
1.0
 76
     1
 77
     6
 78
     2
 67
     7
 79
     3
170
     0
171
     0
290
     0
174
     0
 93
       13
 44
0.0
173
     0
291
     0
 45
0.0
1001
ACAD
1000
AcDbSavedByObjectVersion
1070
     0
  0
VISUALSTYLE
  5
42
102
{ACAD_REACTORS
330
2A
102
}
102
{ACAD_XDICTIONARY
360
382
102
}
330
2A
100
AcDbVisualStyle
  2
Shaded
 70
    27
 71
     2
 72
     2
 73
     1
 90
        2
 40
0.6
 41
30.0
 62
     5
 63
     7
421
 16777215
 74
     0
 91
        4
 64
     7
 65
   257
 75
     1
175
     1
 42
1.0
 92
        8
 66
   257
 43
1.0
 76
     1
 77
     6
 78
     2
 67
     8
425
  7895160
 79
     3
170
     0
171
     0
290
     0
174
     0
 93
        5
 44
0.0
173
     0
291
     0
 45
0.0
1001
ACAD
1000
AcDbSavedByObjectVersion
1070
     0
  0
VISUALSTYLE
  5
41
102
{ACAD_REACTORS
330
2A
102
}
102
{ACAD_XDICTIONARY
360
380
102
}
330
2A
100
AcDbVisualStyle
  2
Shaded with edges
 70
    26
 71
     2
 72
     2
 73
     1
 90
        2
 40
0.6
 41
30.0
 62
     5
 63
     7
421
 16777215
 74
     1
 91
       10
 64
     7
 65
   257
 75
     2
175
     1
 42
1.0
 92
        8
 66
   257
 43
1.0
 76
     1
 77
     6
 78
     2
 67
     7
 79
     3
170
     0
171
     0
290
     0
174
     0
 93
        5
 44
0.0
173
     0
291
     0
 45
0.0
1001
ACAD
1000
AcDbSavedByObjectVersion
1070
     0
  0
VISUALSTYLE
  5
3E
102
{ACAD_REACTORS
330
2A
102
}
102
{ACAD_XDICTIONARY
360
37A
102
}
330
2A
100
AcDbVisualStyle
  2
Shades of Gray
 70
    23
 71
     2
 72
     2
 73
     3
 90
        0
 40
0.6
 41
30.0
 62
     5
 63
     7
421
 16777215
 74
     2
 91
        2
 64
     7
 65
     7
 75
     1
175
     1
 42
40.0
 92
        8
 66
     7
 43
1.0
 76
     1
 77
     6
 78
     2
 67
     7
 79
     3
170
     0
171
     0
290
     0
174
     0
 93
        1
 44
0.0
173
     0
291
     0
 45
0.0
1001
ACAD
1000
AcDbSavedByObjectVersion
1070
     0
  0
VISUALSTYLE
  5
3F
102
{ACAD_REACTORS
330
2A
102
}
102
{ACAD_XDICTIONARY
360
37C
102
}
330
2A
100
AcDbVisualStyle
  2
Sketchy
 70
    24
 71
     1
 72
     2
 73
     2
 90
        0
 40
0.6
 41
30.0
 62
     5
 63
     7
421
 16777215
 74
     2
 91
        2
 64
     7
 65
     7
 75
     1
175
     1
 42
40.0
 92
       11
 66
     7
 43
1.0
 76
     1
 77
     6
 78
     2
 67
     7
 79
     6
170
     0
171
     0
290
     0
174
     0
 93
        1
 44
0.0
173
     0
291
     0
 45
0.0
1001
ACAD
1000
AcDbSavedByObjectVersion
1070
     0
  0
VISUALSTYLE
  5
37
102
{ACAD_REACTORS
330
2A
102
}
102
{ACAD_XDICTIONARY
360
36C
102
}
330
2A
100
AcDbVisualStyle
  2
Thicken
 70
    13
 71
     2
 72
     2
 73
     0
 90
        0
 40
0.6
 41
30.0
 62
     5
 63
     7
421
 16777215
 74
     1
 91
        4
 64
     7
 65
   257
 75
     1
175
     1
 42
1.0
 92
       12
 66
     7
 43
1.0
 76
     1
 77
     6
 78
     2
 67
     7
 79
     5
170
     0
171
     0
290
     0
174
     0
 93
        1
 44
0.0
173
     0
291
     1
 45
0.0
1001
ACAD
1000
AcDbSavedByObjectVersion
1070
     0
  0
VISUALSTYLE
  5
30
102
{ACAD_REACTORS
330
2A
102
}
102
{ACAD_XDICTIONARY
360
35E
102
}
330
2A
100
AcDbVisualStyle
  2
Wireframe
 70
     5
 71
     0
 72
     2
 73
     0
 90
        0
 40
0.6
 41
30.0
 62
     5
 63
     7
421
 16777215
 74
     1
 91
        4
 64
     7
 65
   257
 75
     1
175
     1
 42
1.0
 92
        0
 66
   257
 43
1.0
 76
     1
 77
     6
 78
     2
 67
     7
 79
     3
170
     0
171
     0
290
     0
174
     0
 93
        1
 44
0.0
173
     0
291
     0
 45
0.0
1001
ACAD
1000
AcDbSavedByObjectVersion
1070
     0
  0
VISUALSTYLE
  5
40
102
{ACAD_REACTORS
330
2A
102
}
102
{ACAD_XDICTIONARY
360
37E
102
}
330
2A
100
AcDbVisualStyle
  2
X-Ray
 70
    25
 71
     2
 72
     2
 73
     1
 90
        1
 40
0.5
 41
30.0
 62
     5
 63
     7
421
 16777215
 74
     1
 91
        0
 64
     7
 65
   257
 75
     1
175
     1
 42
1.0
 92
        8
 66
     7
 43
1.0
 76
     1
 77
     6
 78
     2
 67
     7
 79
     3
170
     0
171
     0
290
     0
174
     0
 93
       13
 44
0.0
173
     0
291
     0
 45
0.0
1001
ACAD
1000
AcDbSavedByObjectVersion
1070
     0
  0
DICTIONARYVAR
  5
351
102
{ACAD_REACTORS
330
350
102
}
330
350
100
DictionaryVariables
280
     0
  1
1:1
  0
DICTIONARYVAR
  5
392
102
{ACAD_REACTORS
330
350
102
}
330
350
100
DictionaryVariables
280
     0
  1
Standard
  0
DICTIONARYVAR
  5
391
102
{ACAD_REACTORS
330
350
102
}
330
350
100
DictionaryVariables
280
     0
  1
Standard
  0
DICTIONARYVAR
  5
352
102
{ACAD_REACTORS
330
350
102
}
330
350
100
DictionaryVariables
280
     0
  1
1
  0
DICTIONARYVAR
  5
353
102
{ACAD_REACTORS
330
350
102
}
330
350
100
DictionaryVariables
280
     0
  1
2
  0
DICTIONARY
  5
386
330
45
100
AcDbDictionary
280
     1
281
     1
  3
ACAD_XREC_ROUNDTRIP
360
387
  0
DICTIONARY
  5
384
330
44
100
AcDbDictionary
280
     1
281
     1
  3
ACAD_XREC_ROUNDTRIP
360
385
  0
DICTIONARY
  5
388
330
46
100
AcDbDictionary
280
     1
281
     1
  3
ACAD_XREC_ROUNDTRIP
360
389
  0
DICTIONARY
  5
38E
330
6C
100
AcDbDictionary
280
     1
281
     1
  3
ACAD_XREC_ROUNDTRIP
360
38F
  0
DICTIONARY
  5
38A
330
6A
100
AcDbDictionary
280
     1
281
     1
  3
ACAD_ROUNDTRIP_2008_TABLESTYLE_CELLSTYLEMAP
360
38C
  3
ACAD_XREC_ROUNDTRIP
360
38B
  0
DICTIONARY
  5
35C
330
2F
100
AcDbDictionary
280
     1
281
     1
  3
ACAD_XREC_ROUNDTRIP
360
35D
  0
DICTIONARY
  5
362
330
32
100
AcDbDictionary
280
     1
281
     1
  3
ACAD_XREC_ROUNDTRIP
360
363
  0
DICTIONARY
  5
36A
330
36
100
AcDbDictionary
280
     1
281
     1
  3
ACAD_XREC_ROUNDTRIP
360
36B
  0
DICTIONARY
  5
372
330
3A
100
AcDbDictionary
280
     1
281
     1
  3
ACAD_XREC_ROUNDTRIP
360
373
  0
DICTIONARY
  5
366
330
34
100
AcDbDictionary
280
     1
281
     1
  3
ACAD_XREC_ROUNDTRIP
360
367
  0
DICTIONARY
  5
368
330
35
100
AcDbDictionary
280
     1
281
     1
  3
ACAD_XREC_ROUNDTRIP
360
369
  0
DICTIONARY
  5
378
330
3D
100
AcDbDictionary
280
     1
281
     1
  3
ACAD_XREC_ROUNDTRIP
360
379
  0
DICTIONARY
  5
370
330
39
100
AcDbDictionary
280
     1
281
     1
  3
ACAD_XREC_ROUNDTRIP
360
371
  0
DICTIONARY
  5
354
330
2B
100
AcDbDictionary
280
     1
281
     1
  3
ACAD_XREC_ROUNDTRIP
360
355
  0
DICTIONARY
  5
356
330
2C
100
AcDbDictionary
280
     1
281
     1
  3
ACAD_XREC_ROUNDTRIP
360
357
  0
DICTIONARY
  5
358
330
2D
100
AcDbDictionary
280
     1
281
     1
  3
ACAD_XREC_ROUNDTRIP
360
359
  0
DICTIONARY
  5
35A
330
2E
100
AcDbDictionary
280
     1
281
     1
  3
ACAD_XREC_ROUNDTRIP
360
35B
  0
DICTIONARY
  5
360
330
31
100
AcDbDictionary
280
     1
281
     1
  3
ACAD_XREC_ROUNDTRIP
360
361
  0
DICTIONARY
  5
374
330
3B
100
AcDbDictionary
280
     1
281
     1
  3
ACAD_XREC_ROUNDTRIP
360
375
  0
DICTIONARY
  5
36E
330
38
100
AcDbDictionary
280
     1
281
     1
  3
ACAD_XREC_ROUNDTRIP
360
36F
  0
DICTIONARY
  5
376
330
3C
100
AcDbDictionary
280
     1
281
     1
  3
ACAD_XREC_ROUNDTRIP
360
377
  0
DICTIONARY
  5
364
330
33
100
AcDbDictionary
280
     1
281
     1
  3
ACAD_XREC_ROUNDTRIP
360
365
  0
DICTIONARY
  5
382
330
42
100
AcDbDictionary
280
     1
281
     1
  3
ACAD_XREC_ROUNDTRIP
360
383
  0
DICTIONARY
  5
380
330
41
100
AcDbDictionary
280
     1
281
     1
  3
ACAD_XREC_ROUNDTRIP
360
381
  0
DICTIONARY
  5
37A
330
3E
100
AcDbDictionary
280
     1
281
     1
  3
ACAD_XREC_ROUNDTRIP
360
37B
  0
DICTIONARY
  5
37C
330
3F
100
AcDbDictionary
280
     1
281
     1
  3
ACAD_XREC_ROUNDTRIP
360
37D
  0
DICTIONARY
  5
36C
330
37
100
AcDbDictionary
280
     1
281
     1
  3
ACAD_XREC_ROUNDTRIP
360
36D
  0
DICTIONARY
  5
35E
330
30
100
AcDbDictionary
280
     1
281
     1
  3
ACAD_XREC_ROUNDTRIP
360
35F
  0
DICTIONARY
  5
37E
330
40
100
AcDbDictionary
280
     1
281
     1
  3
ACAD_XREC_ROUNDTRIP
360
37F
  0
XRECORD
  5
387
102
{ACAD_REACTORS
330
386
102
}
330
386
100
AcDbXrecord
280
     1
102
MATERIAL
148
0.0
149
0.0
149
0.0
 93
        0
 94
      127
282
     0
 72
     1
 77
     1
171
     1
175
     1
179
     1
273
     0
  0
XRECORD
  5
385
102
{ACAD_REACTORS
330
384
102
}
330
384
100
AcDbXrecord
280
     1
102
MATERIAL
148
0.0
149
0.0
149
0.0
 93
        0
 94
      127
282
     0
 72
     1
 77
     1
171
     1
175
     1
179
     1
273
     0
  0
XRECORD
  5
389
102
{ACAD_REACTORS
330
388
102
}
330
388
100
AcDbXrecord
280
     1
102
MATERIAL
148
0.0
149
0.0
149
0.0
 93
        0
 94
      127
282
     0
 72
     1
 77
     1
171
     1
175
     1
179
     1
273
     0
  0
XRECORD
  5
38F
102
{ACAD_REACTORS
330
38E
102
}
330
38E
100
AcDbXrecord
280
     1
102
ACAD_ROUNDTRIP_2010_MLEADER_STYLE
  0
CELLSTYLEMAP
  5
38C
102
{ACAD_REACTORS
330
38A
102
}
330
38A
100
AcDbCellStyleMap
 90
        3
300
CELLSTYLE
  1
TABLEFORMAT_BEGIN
 90
        5
170
     1
 91
        0
 92
    32768
 62
   257
 93
        1
300
CONTENTFORMAT
  1
CONTENTFORMAT_BEGIN
 90
        0
 91
        0
 92
        4
 93
        0
300

 40
0.0
140
1.0
 94
        5
 62
     0
340
11
144
0.25
309
CONTENTFORMAT_END
171
     1
301
MARGIN
  1
CELLMARGIN_BEGIN
 40
0.06
 40
0.06
 40
0.06
 40
0.06
 40
0.06
 40
0.06
309
CELLMARGIN_END
 94
        6
 95
        1
302
GRIDFORMAT
  1
GRIDFORMAT_BEGIN
 90
        0
 91
        1
 62
     0
 92
       -2
340
14
 93
        0
 40
0.045
309
GRIDFORMAT_END
 95
        2
302
GRIDFORMAT
  1
GRIDFORMAT_BEGIN
 90
        0
 91
        1
 62
     0
 92
       -2
340
14
 93
        0
 40
0.045
309
GRIDFORMAT_END
 95
        4
302
GRIDFORMAT
  1
GRIDFORMAT_BEGIN
 90
        0
 91
        1
 62
     0
 92
       -2
340
14
 93
        0
 40
0.045
309
GRIDFORMAT_END
 95
        8
302
GRIDFORMAT
  1
GRIDFORMAT_BEGIN
 90
        0
 91
        1
 62
     0
 92
       -2
340
14
 93
        0
 40
0.045
309
GRIDFORMAT_END
 95
       16
302
GRIDFORMAT
  1
GRIDFORMAT_BEGIN
 90
        0
 91
        1
 62
     0
 92
       -2
340
14
 93
        0
 40
0.045
309
GRIDFORMAT_END
 95
       32
302
GRIDFORMAT
  1
GRIDFORMAT_BEGIN
 90
        0
 91
        1
 62
     0
 92
       -2
340
14
 93
        0
 40
0.045
309
GRIDFORMAT_END
309
TABLEFORMAT_END
  1
CELLSTYLE_BEGIN
 90
        1
 91
        1
300
_TITLE
309
CELLSTYLE_END
300
CELLSTYLE
  1
TABLEFORMAT_BEGIN
 90
        5
170
     1
 91
        0
 92
        0
 62
   257
 93
        1
300
CONTENTFORMAT
  1
CONTENTFORMAT_BEGIN
 90
        0
 91
        0
 92
        4
 93
        0
300

 40
0.0
140
1.0
 94
        5
 62
     0
340
11
144
0.18
309
CONTENTFORMAT_END
171
     1
301
MARGIN
  1
CELLMARGIN_BEGIN
 40
0.06
 40
0.06
 40
0.06
 40
0.06
 40
0.06
 40
0.06
309
CELLMARGIN_END
 94
        6
 95
        1
302
GRIDFORMAT
  1
GRIDFORMAT_BEGIN
 90
        0
 91
        1
 62
     0
 92
       -2
340
14
 93
        0
 40
0.045
309
GRIDFORMAT_END
 95
        2
302
GRIDFORMAT
  1
GRIDFORMAT_BEGIN
 90
        0
 91
        1
 62
     0
 92
       -2
340
14
 93
        0
 40
0.045
309
GRIDFORMAT_END
 95
        4
302
GRIDFORMAT
  1
GRIDFORMAT_BEGIN
 90
        0
 91
        1
 62
     0
 92
       -2
340
14
 93
        0
 40
0.045
309
GRIDFORMAT_END
 95
        8
302
GRIDFORMAT
  1
GRIDFORMAT_BEGIN
 90
        0
 91
        1
 62
     0
 92
       -2
340
14
 93
        0
 40
0.045
309
GRIDFORMAT_END
 95
       16
302
GRIDFORMAT
  1
GRIDFORMAT_BEGIN
 90
        0
 91
        1
 62
     0
 92
       -2
340
14
 93
        0
 40
0.045
309
GRIDFORMAT_END
 95
       32
302
GRIDFORMAT
  1
GRIDFORMAT_BEGIN
 90
        0
 91
        1
 62
     0
 92
       -2
340
14
 93
        0
 40
0.045
309
GRIDFORMAT_END
309
TABLEFORMAT_END
  1
CELLSTYLE_BEGIN
 90
        2
 91
        1
300
_HEADER
309
CELLSTYLE_END
300
CELLSTYLE
  1
TABLEFORMAT_BEGIN
 90
        5
170
     1
 91
        0
 92
        0
 62
   257
 93
        1
300
CONTENTFORMAT
  1
CONTENTFORMAT_BEGIN
 90
        0
 91
        0
 92
        4
 93
        0
300

 40
0.0
140
1.0
 94
        2
 62
     0
340
11
144
0.18
309
CONTENTFORMAT_END
171
     1
301
MARGIN
  1
CELLMARGIN_BEGIN
 40
0.06
 40
0.06
 40
0.06
 40
0.06
 40
0.06
 40
0.06
309
CELLMARGIN_END
 94
        6
 95
        1
302
GRIDFORMAT
  1
GRIDFORMAT_BEGIN
 90
        0
 91
        1
 62
     0
 92
       -2
340
14
 93
        0
 40
0.045
309
GRIDFORMAT_END
 95
        2
302
GRIDFORMAT
  1
GRIDFORMAT_BEGIN
 90
        0
 91
        1
 62
     0
 92
       -2
340
14
 93
        0
 40
0.045
309
GRIDFORMAT_END
 95
        4
302
GRIDFORMAT
  1
GRIDFORMAT_BEGIN
 90
        0
 91
        1
 62
     0
 92
       -2
340
14
 93
        0
 40
0.045
309
GRIDFORMAT_END
 95
        8
302
GRIDFORMAT
  1
GRIDFORMAT_BEGIN
 90
        0
 91
        1
 62
     0
 92
       -2
340
14
 93
        0
 40
0.045
309
GRIDFORMAT_END
 95
       16
302
GRIDFORMAT
  1
GRIDFORMAT_BEGIN
 90
        0
 91
        1
 62
     0
 92
       -2
340
14
 93
        0
 40
0.045
309
GRIDFORMAT_END
 95
       32
302
GRIDFORMAT
  1
GRIDFORMAT_BEGIN
 90
        0
 91
        1
 62
     0
 92
       -2
340
14
 93
        0
 40
0.045
309
GRIDFORMAT_END
309
TABLEFORMAT_END
  1
CELLSTYLE_BEGIN
 90
        3
 91
        2
300
_DATA
309
CELLSTYLE_END
  0
XRECORD
  5
38B
102
{ACAD_REACTORS
330
38A
102
}
330
38A
100
AcDbXrecord
280
     1
102
ACAD_ROUNDTRIP_PRE2007_TABLESTYLE
 90
        4
 91
        0
  1

 92
        4
 93
        0
  2

 94
        4
 95
        0
  3

  0
XRECORD
  5
35D
102
{ACAD_REACTORS
330
35C
102
}
330
35C
100
AcDbXrecord
280
     1
102
RTVSPropertyOp0
 70
     1
102
RTVSPropertyOp1
 70
     1
102
RTVSPropertyOp2
 70
     1
102
RTVSPropertyOp3
 70
     1
102
RTVSPropertyOp4
 70
     1
102
RTVSPropertyOp5
 70
     1
102
RTVSPropertyOp6
 70
     1
102
RTVSPropertyOp7
 70
     1
102
RTVSPropertyOp8
 70
     1
102
RTVSPropertyOp9
 70
     1
102
RTVSPropertyOp10
 70
     1
102
RTVSPropertyOp11
 70
     1
102
RTVSPropertyOp12
 70
     1
102
RTVSPropertyOp13
 70
     1
102
RTVSPropertyOp14
 70
     1
102
RTVSPropertyOp15
 70
     1
102
RTVSPropertyOp16
 70
     1
102
RTVSPropertyOp17
 70
     1
102
RTVSPropertyOp18
 70
     1
102
RTVSPropertyOp19
 70
     1
102
RTVSPropertyOp20
 70
     1
102
RTVSPropertyOp21
 70
     1
102
RTVSPropertyOp22
 70
     1
102
RTVSPropertyOp23
 70
     1
102
RTVSPropertyOp24
 70
     1
102
RTVSPropertyOp25
 70
     1
102
RTVSPropertyOp26
 70
     1
102
RTVSPropertyOp27
 70
     1
102
RTVSPropertyOp28
 70
     1
102
RTVSPropertyOp29
 70
     1
102
RTVSPropertyOp30
 70
     1
102
RTVSPropertyOp31
 70
     1
102
RTVSPropertyOp32
 70
     1
102
RTVSPropertyOp33
 70
     1
102
RTVSPropertyOp34
 70
     1
102
RTVSPropertyOp35
 70
     1
102
RTVSPropertyOp36
 70
     1
102
RTVSPropertyOp37
 70
     1
102
RTVSPropertyOp38
 70
     1
102
RTVSPropertyOp39
 70
     1
102
RTVSPropertyOp40
 70
     1
102
RTVSPropertyOp41
 70
     1
102
RTVSPropertyOp42
 70
     1
102
RTVSPropertyOp43
 70
     1
102
RTVSPropertyOp44
 70
     1
102
RTVSPropertyOp45
 70
     1
102
RTVSPropertyOp46
 70
     1
102
RTVSPropertyOp47
 70
     1
102
RTVSPropertyOp48
 70
     1
102
RTVSPropertyOp49
 70
     1
102
RTVSPropertyOp50
 70
     1
102
RTVSPropertyOp51
 70
     0
102
RTVSPropertyOp52
 70
     0
102
RTVSPropertyOp53
 70
     1
102
RTVSPropertyOp54
 70
     1
102
RTVSPropertyOp55
 70
     1
102
RTVSPropertyOp56
 70
     1
102
RTVSPropertyOp57
 70
     1
102
RTVSPost2010Prop28
280
     1
102
RTVSPost2010PropOp28
 70
     1
102
RTVSPost2010Prop29
280
     1
102
RTVSPost2010PropOp29
 70
     1
102
RTVSPost2010Prop30
280
     0
102
RTVSPost2010PropOp30
 70
     1
102
RTVSPost2010Prop31
280
     0
102
RTVSPost2010PropOp31
 70
     1
102
RTVSPost2010Prop32
280
     0
102
RTVSPost2010PropOp32
 70
     1
102
RTVSPost2010Prop33
280
     0
102
RTVSPost2010PropOp33
 70
     1
102
RTVSPost2010Prop34
280
     0
102
RTVSPost2010PropOp34
 70
     1
102
RTVSPost2010Prop35
280
     0
102
RTVSPost2010PropOp35
 70
     1
102
RTVSPost2010Prop36
280
     0
102
RTVSPost2010PropOp36
 70
     1
102
RTVSPost2010Prop37
 90
       50
102
RTVSPost2010PropOp37
 70
     1
102
RTVSPost2010Prop38
140
0.0
102
RTVSPost2010PropOp38
 70
     1
102
RTVSPost2010Prop39
140
1.0
102
RTVSPost2010PropOp39
 70
     1
102
RTVSPost2010Prop40
 90
        0
102
RTVSPost2010PropOp40
 70
     1
102
RTVSPost2010Prop41ColorIndex
 90
       18
102
RTVSPost2010Prop41ColorRGB
 90
        0
102
RTVSPost2010PropOp41
 70
     1
102
RTVSPost2010Prop42
 90
       50
102
RTVSPost2010PropOp42
 70
     1
102
RTVSPost2010Prop43
 90
        3
102
RTVSPost2010PropOp43
 70
     1
102
RTVSPost2010Prop44ColorIndex
 90
        5
102
RTVSPost2010Prop44ColorRGB
 90
      255
102
RTVSPost2010PropOp44
 70
     1
102
RTVSPost2010Prop45
280
     0
102
RTVSPost2010PropOp45
 70
     1
102
RTVSPost2010Prop46
 90
       50
102
RTVSPost2010PropOp46
 70
     1
102
RTVSPost2010Prop47
 90
       50
102
RTVSPost2010PropOp47
 70
     1
102
RTVSPost2010Prop48
 90
       50
102
RTVSPost2010PropOp48
 70
     1
102
RTVSPost2010Prop49
280
     0
102
RTVSPost2010PropOp49
 70
     1
102
RTVSPost2010Prop50
 90
       50
102
RTVSPost2010PropOp50
 70
     1
102
RTVSPost2010Prop51ColorIndex
 90
      256
102
RTVSPost2010Prop51ColorRGB
 90
-16777216
102
RTVSPost2010PropOp51
 70
     0
102
RTVSPost2010Prop52
140
1.0
102
RTVSPost2010PropOp52
 70
     0
102
RTVSPost2010Prop53
 90
        2
102
RTVSPost2010PropOp53
 70
     1
102
RTVSPost2010Prop54
  1
strokes_ogs.tif
102
RTVSPost2010PropOp54
 70
     1
102
RTVSPost2010Prop55
280
     0
102
RTVSPost2010PropOp55
 70
     1
102
RTVSPost2010Prop56
140
1.0
102
RTVSPost2010PropOp56
 70
     1
102
RTVSPost2010Prop57
140
1.0
102
RTVSPost2010PropOp57
 70
     1
  0
XRECORD
  5
363
102
{ACAD_REACTORS
330
362
102
}
330
362
100
AcDbXrecord
280
     1
102
RTVSPropertyOp0
 70
     1
102
RTVSPropertyOp1
 70
     1
102
RTVSPropertyOp2
 70
     1
102
RTVSPropertyOp3
 70
     1
102
RTVSPropertyOp4
 70
     1
102
RTVSPropertyOp5
 70
     1
102
RTVSPropertyOp6
 70
     1
102
RTVSPropertyOp7
 70
     1
102
RTVSPropertyOp8
 70
     1
102
RTVSPropertyOp9
 70
     1
102
RTVSPropertyOp10
 70
     1
102
RTVSPropertyOp11
 70
     1
102
RTVSPropertyOp12
 70
     1
102
RTVSPropertyOp13
 70
     1
102
RTVSPropertyOp14
 70
     1
102
RTVSPropertyOp15
 70
     1
102
RTVSPropertyOp16
 70
     1
102
RTVSPropertyOp17
 70
     1
102
RTVSPropertyOp18
 70
     1
102
RTVSPropertyOp19
 70
     1
102
RTVSPropertyOp20
 70
     1
102
RTVSPropertyOp21
 70
     1
102
RTVSPropertyOp22
 70
     1
102
RTVSPropertyOp23
 70
     1
102
RTVSPropertyOp24
 70
     1
102
RTVSPropertyOp25
 70
     1
102
RTVSPropertyOp26
 70
     1
102
RTVSPropertyOp27
 70
     1
102
RTVSPropertyOp28
 70
     1
102
RTVSPropertyOp29
 70
     1
102
RTVSPropertyOp30
 70
     1
102
RTVSPropertyOp31
 70
     1
102
RTVSPropertyOp32
 70
     1
102
RTVSPropertyOp33
 70
     1
102
RTVSPropertyOp34
 70
     1
102
RTVSPropertyOp35
 70
     1
102
RTVSPropertyOp36
 70
     1
102
RTVSPropertyOp37
 70
     1
102
RTVSPropertyOp38
 70
     1
102
RTVSPropertyOp39
 70
     1
102
RTVSPropertyOp40
 70
     1
102
RTVSPropertyOp41
 70
     1
102
RTVSPropertyOp42
 70
     1
102
RTVSPropertyOp43
 70
     1
102
RTVSPropertyOp44
 70
     1
102
RTVSPropertyOp45
 70
     1
102
RTVSPropertyOp46
 70
     1
102
RTVSPropertyOp47
 70
     1
102
RTVSPropertyOp48
 70
     1
102
RTVSPropertyOp49
 70
     1
102
RTVSPropertyOp50
 70
     1
102
RTVSPropertyOp51
 70
     0
102
RTVSPropertyOp52
 70
     0
102
RTVSPropertyOp53
 70
     1
102
RTVSPropertyOp54
 70
     1
102
RTVSPropertyOp55
 70
     1
102
RTVSPropertyOp56
 70
     1
102
RTVSPropertyOp57
 70
     1
102
RTVSPost2010Prop28
280
     0
102
RTVSPost2010PropOp28
 70
     1
102
RTVSPost2010Prop29
280
     1
102
RTVSPost2010PropOp29
 70
     1
102
RTVSPost2010Prop30
280
     1
102
RTVSPost2010PropOp30
 70
     1
102
RTVSPost2010Prop31
280
     0
102
RTVSPost2010PropOp31
 70
     1
102
RTVSPost2010Prop32
280
     0
102
RTVSPost2010PropOp32
 70
     1
102
RTVSPost2010Prop33
280
     0
102
RTVSPost2010PropOp33
 70
     1
102
RTVSPost2010Prop34
280
     0
102
RTVSPost2010PropOp34
 70
     1
102
RTVSPost2010Prop35
280
     0
102
RTVSPost2010PropOp35
 70
     1
102
RTVSPost2010Prop36
280
     0
102
RTVSPost2010PropOp36
 70
     1
102
RTVSPost2010Prop37
 90
       50
102
RTVSPost2010PropOp37
 70
     1
102
RTVSPost2010Prop38
140
0.0
102
RTVSPost2010PropOp38
 70
     1
102
RTVSPost2010Prop39
140
1.0
102
RTVSPost2010PropOp39
 70
     1
102
RTVSPost2010Prop40
 90
        0
102
RTVSPost2010PropOp40
 70
     1
102
RTVSPost2010Prop41ColorIndex
 90
       18
102
RTVSPost2010Prop41ColorRGB
 90
        0
102
RTVSPost2010PropOp41
 70
     1
102
RTVSPost2010Prop42
 90
       50
102
RTVSPost2010PropOp42
 70
     1
102
RTVSPost2010Prop43
 90
        3
102
RTVSPost2010PropOp43
 70
     1
102
RTVSPost2010Prop44ColorIndex
 90
        5
102
RTVSPost2010Prop44ColorRGB
 90
      255
102
RTVSPost2010PropOp44
 70
     1
102
RTVSPost2010Prop45
280
     0
102
RTVSPost2010PropOp45
 70
     1
102
RTVSPost2010Prop46
 90
       50
102
RTVSPost2010PropOp46
 70
     1
102
RTVSPost2010Prop47
 90
       50
102
RTVSPost2010PropOp47
 70
     1
102
RTVSPost2010Prop48
 90
       50
102
RTVSPost2010PropOp48
 70
     1
102
RTVSPost2010Prop49
280
     0
102
RTVSPost2010PropOp49
 70
     1
102
RTVSPost2010Prop50
 90
       50
102
RTVSPost2010PropOp50
 70
     1
102
RTVSPost2010Prop51ColorIndex
 90
      256
102
RTVSPost2010Prop51ColorRGB
 90
-16777216
102
RTVSPost2010PropOp51
 70
     0
102
RTVSPost2010Prop52
140
1.0
102
RTVSPost2010PropOp52
 70
     0
102
RTVSPost2010Prop53
 90
        2
102
RTVSPost2010PropOp53
 70
     1
102
RTVSPost2010Prop54
  1
strokes_ogs.tif
102
RTVSPost2010PropOp54
 70
     1
102
RTVSPost2010Prop55
280
     0
102
RTVSPost2010PropOp55
 70
     1
102
RTVSPost2010Prop56
140
1.0
102
RTVSPost2010PropOp56
 70
     1
102
RTVSPost2010Prop57
140
1.0
102
RTVSPost2010PropOp57
 70
     1
  0
XRECORD
  5
36B
102
{ACAD_REACTORS
330
36A
102
}
330
36A
100
AcDbXrecord
280
     1
102
RTVSPropertyOp0
 70
     1
102
RTVSPropertyOp1
 70
     1
102
RTVSPropertyOp2
 70
     1
102
RTVSPropertyOp3
 70
     1
102
RTVSPropertyOp4
 70
     1
102
RTVSPropertyOp5
 70
     1
102
RTVSPropertyOp6
 70
     1
102
RTVSPropertyOp7
 70
     1
102
RTVSPropertyOp8
 70
     1
102
RTVSPropertyOp9
 70
     1
102
RTVSPropertyOp10
 70
     1
102
RTVSPropertyOp11
 70
     1
102
RTVSPropertyOp12
 70
     1
102
RTVSPropertyOp13
 70
     1
102
RTVSPropertyOp14
 70
     1
102
RTVSPropertyOp15
 70
     1
102
RTVSPropertyOp16
 70
     1
102
RTVSPropertyOp17
 70
     1
102
RTVSPropertyOp18
 70
     1
102
RTVSPropertyOp19
 70
     1
102
RTVSPropertyOp20
 70
     1
102
RTVSPropertyOp21
 70
     1
102
RTVSPropertyOp22
 70
     1
102
RTVSPropertyOp23
 70
     1
102
RTVSPropertyOp24
 70
     1
102
RTVSPropertyOp25
 70
     1
102
RTVSPropertyOp26
 70
     1
102
RTVSPropertyOp27
 70
     1
102
RTVSPropertyOp28
 70
     1
102
RTVSPropertyOp29
 70
     1
102
RTVSPropertyOp30
 70
     1
102
RTVSPropertyOp31
 70
     1
102
RTVSPropertyOp32
 70
     1
102
RTVSPropertyOp33
 70
     1
102
RTVSPropertyOp34
 70
     1
102
RTVSPropertyOp35
 70
     1
102
RTVSPropertyOp36
 70
     1
102
RTVSPropertyOp37
 70
     1
102
RTVSPropertyOp38
 70
     1
102
RTVSPropertyOp39
 70
     1
102
RTVSPropertyOp40
 70
     1
102
RTVSPropertyOp41
 70
     1
102
RTVSPropertyOp42
 70
     1
102
RTVSPropertyOp43
 70
     1
102
RTVSPropertyOp44
 70
     1
102
RTVSPropertyOp45
 70
     1
102
RTVSPropertyOp46
 70
     1
102
RTVSPropertyOp47
 70
     1
102
RTVSPropertyOp48
 70
     1
102
RTVSPropertyOp49
 70
     1
102
RTVSPropertyOp50
 70
     1
102
RTVSPropertyOp51
 70
     0
102
RTVSPropertyOp52
 70
     0
102
RTVSPropertyOp53
 70
     1
102
RTVSPropertyOp54
 70
     1
102
RTVSPropertyOp55
 70
     1
102
RTVSPropertyOp56
 70
     1
102
RTVSPropertyOp57
 70
     1
102
RTVSPost2010Prop28
280
     0
102
RTVSPost2010PropOp28
 70
     1
102
RTVSPost2010Prop29
280
     1
102
RTVSPost2010PropOp29
 70
     1
102
RTVSPost2010Prop30
280
     1
102
RTVSPost2010PropOp30
 70
     1
102
RTVSPost2010Prop31
280
     0
102
RTVSPost2010PropOp31
 70
     1
102
RTVSPost2010Prop32
280
     0
102
RTVSPost2010PropOp32
 70
     1
102
RTVSPost2010Prop33
280
     0
102
RTVSPost2010PropOp33
 70
     1
102
RTVSPost2010Prop34
280
     0
102
RTVSPost2010PropOp34
 70
     1
102
RTVSPost2010Prop35
280
     0
102
RTVSPost2010PropOp35
 70
     1
102
RTVSPost2010Prop36
280
     0
102
RTVSPost2010PropOp36
 70
     1
102
RTVSPost2010Prop37
 90
       50
102
RTVSPost2010PropOp37
 70
     1
102
RTVSPost2010Prop38
140
0.0
102
RTVSPost2010PropOp38
 70
     1
102
RTVSPost2010Prop39
140
1.0
102
RTVSPost2010PropOp39
 70
     1
102
RTVSPost2010Prop40
 90
        0
102
RTVSPost2010PropOp40
 70
     1
102
RTVSPost2010Prop41ColorIndex
 90
       18
102
RTVSPost2010Prop41ColorRGB
 90
        0
102
RTVSPost2010PropOp41
 70
     1
102
RTVSPost2010Prop42
 90
       50
102
RTVSPost2010PropOp42
 70
     1
102
RTVSPost2010Prop43
 90
        3
102
RTVSPost2010PropOp43
 70
     1
102
RTVSPost2010Prop44ColorIndex
 90
        5
102
RTVSPost2010Prop44ColorRGB
 90
      255
102
RTVSPost2010PropOp44
 70
     1
102
RTVSPost2010Prop45
280
     0
102
RTVSPost2010PropOp45
 70
     1
102
RTVSPost2010Prop46
 90
       50
102
RTVSPost2010PropOp46
 70
     1
102
RTVSPost2010Prop47
 90
       50
102
RTVSPost2010PropOp47
 70
     1
102
RTVSPost2010Prop48
 90
       50
102
RTVSPost2010PropOp48
 70
     1
102
RTVSPost2010Prop49
280
     0
102
RTVSPost2010PropOp49
 70
     1
102
RTVSPost2010Prop50
 90
       50
102
RTVSPost2010PropOp50
 70
     1
102
RTVSPost2010Prop51ColorIndex
 90
      256
102
RTVSPost2010Prop51ColorRGB
 90
-16777216
102
RTVSPost2010PropOp51
 70
     0
102
RTVSPost2010Prop52
140
1.0
102
RTVSPost2010PropOp52
 70
     0
102
RTVSPost2010Prop53
 90
        2
102
RTVSPost2010PropOp53
 70
     1
102
RTVSPost2010Prop54
  1
strokes_ogs.tif
102
RTVSPost2010PropOp54
 70
     1
102
RTVSPost2010Prop55
280
     0
102
RTVSPost2010PropOp55
 70
     1
102
RTVSPost2010Prop56
140
1.0
102
RTVSPost2010PropOp56
 70
     1
102
RTVSPost2010Prop57
140
1.0
102
RTVSPost2010PropOp57
 70
     1
  0
XRECORD
  5
373
102
{ACAD_REACTORS
330
372
102
}
330
372
100
AcDbXrecord
280
     1
102
RTVSPropertyOp0
 70
     1
102
RTVSPropertyOp1
 70
     1
102
RTVSPropertyOp2
 70
     1
102
RTVSPropertyOp3
 70
     1
102
RTVSPropertyOp4
 70
     1
102
RTVSPropertyOp5
 70
     1
102
RTVSPropertyOp6
 70
     1
102
RTVSPropertyOp7
 70
     1
102
RTVSPropertyOp8
 70
     1
102
RTVSPropertyOp9
 70
     1
102
RTVSPropertyOp10
 70
     1
102
RTVSPropertyOp11
 70
     1
102
RTVSPropertyOp12
 70
     1
102
RTVSPropertyOp13
 70
     1
102
RTVSPropertyOp14
 70
     1
102
RTVSPropertyOp15
 70
     1
102
RTVSPropertyOp16
 70
     1
102
RTVSPropertyOp17
 70
     1
102
RTVSPropertyOp18
 70
     1
102
RTVSPropertyOp19
 70
     1
102
RTVSPropertyOp20
 70
     1
102
RTVSPropertyOp21
 70
     1
102
RTVSPropertyOp22
 70
     1
102
RTVSPropertyOp23
 70
     1
102
RTVSPropertyOp24
 70
     1
102
RTVSPropertyOp25
 70
     1
102
RTVSPropertyOp26
 70
     1
102
RTVSPropertyOp27
 70
     1
102
RTVSPropertyOp28
 70
     1
102
RTVSPropertyOp29
 70
     1
102
RTVSPropertyOp30
 70
     1
102
RTVSPropertyOp31
 70
     1
102
RTVSPropertyOp32
 70
     1
102
RTVSPropertyOp33
 70
     1
102
RTVSPropertyOp34
 70
     1
102
RTVSPropertyOp35
 70
     1
102
RTVSPropertyOp36
 70
     1
102
RTVSPropertyOp37
 70
     1
102
RTVSPropertyOp38
 70
     1
102
RTVSPropertyOp39
 70
     1
102
RTVSPropertyOp40
 70
     1
102
RTVSPropertyOp41
 70
     1
102
RTVSPropertyOp42
 70
     1
102
RTVSPropertyOp43
 70
     1
102
RTVSPropertyOp44
 70
     1
102
RTVSPropertyOp45
 70
     1
102
RTVSPropertyOp46
 70
     1
102
RTVSPropertyOp47
 70
     1
102
RTVSPropertyOp48
 70
     1
102
RTVSPropertyOp49
 70
     1
102
RTVSPropertyOp50
 70
     1
102
RTVSPropertyOp51
 70
     0
102
RTVSPropertyOp52
 70
     0
102
RTVSPropertyOp53
 70
     1
102
RTVSPropertyOp54
 70
     1
102
RTVSPropertyOp55
 70
     1
102
RTVSPropertyOp56
 70
     1
102
RTVSPropertyOp57
 70
     1
102
RTVSPost2010Prop28
280
     0
102
RTVSPost2010PropOp28
 70
     1
102
RTVSPost2010Prop29
280
     1
102
RTVSPost2010PropOp29
 70
     1
102
RTVSPost2010Prop30
280
     1
102
RTVSPost2010PropOp30
 70
     1
102
RTVSPost2010Prop31
280
     0
102
RTVSPost2010PropOp31
 70
     1
102
RTVSPost2010Prop32
280
     0
102
RTVSPost2010PropOp32
 70
     1
102
RTVSPost2010Prop33
280
     0
102
RTVSPost2010PropOp33
 70
     1
102
RTVSPost2010Prop34
280
     0
102
RTVSPost2010PropOp34
 70
     1
102
RTVSPost2010Prop35
280
     0
102
RTVSPost2010PropOp35
 70
     1
102
RTVSPost2010Prop36
280
     0
102
RTVSPost2010PropOp36
 70
     1
102
RTVSPost2010Prop37
 90
       50
102
RTVSPost2010PropOp37
 70
     1
102
RTVSPost2010Prop38
140
0.0
102
RTVSPost2010PropOp38
 70
     1
102
RTVSPost2010Prop39
140
1.0
102
RTVSPost2010PropOp39
 70
     1
102
RTVSPost2010Prop40
 90
        0
102
RTVSPost2010PropOp40
 70
     1
102
RTVSPost2010Prop41ColorIndex
 90
       18
102
RTVSPost2010Prop41ColorRGB
 90
        0
102
RTVSPost2010PropOp41
 70
     1
102
RTVSPost2010Prop42
 90
       50
102
RTVSPost2010PropOp42
 70
     1
102
RTVSPost2010Prop43
 90
        3
102
RTVSPost2010PropOp43
 70
     1
102
RTVSPost2010Prop44ColorIndex
 90
        5
102
RTVSPost2010Prop44ColorRGB
 90
      255
102
RTVSPost2010PropOp44
 70
     1
102
RTVSPost2010Prop45
280
     0
102
RTVSPost2010PropOp45
 70
     1
102
RTVSPost2010Prop46
 90
       50
102
RTVSPost2010PropOp46
 70
     1
102
RTVSPost2010Prop47
 90
       50
102
RTVSPost2010PropOp47
 70
     1
102
RTVSPost2010Prop48
 90
       50
102
RTVSPost2010PropOp48
 70
     1
102
RTVSPost2010Prop49
280
     0
102
RTVSPost2010PropOp49
 70
     1
102
RTVSPost2010Prop50
 90
       50
102
RTVSPost2010PropOp50
 70
     1
102
RTVSPost2010Prop51ColorIndex
 90
      256
102
RTVSPost2010Prop51ColorRGB
 90
-16777216
102
RTVSPost2010PropOp51
 70
     0
102
RTVSPost2010Prop52
140
1.0
102
RTVSPost2010PropOp52
 70
     0
102
RTVSPost2010Prop53
 90
        2
102
RTVSPost2010PropOp53
 70
     1
102
RTVSPost2010Prop54
  1
strokes_ogs.tif
102
RTVSPost2010PropOp54
 70
     1
102
RTVSPost2010Prop55
280
     0
102
RTVSPost2010PropOp55
 70
     1
102
RTVSPost2010Prop56
140
1.0
102
RTVSPost2010PropOp56
 70
     1
102
RTVSPost2010Prop57
140
1.0
102
RTVSPost2010PropOp57
 70
     1
  0
XRECORD
  5
367
102
{ACAD_REACTORS
330
366
102
}
330
366
100
AcDbXrecord
280
     1
102
RTVSPropertyOp0
 70
     1
102
RTVSPropertyOp1
 70
     1
102
RTVSPropertyOp2
 70
     1
102
RTVSPropertyOp3
 70
     1
102
RTVSPropertyOp4
 70
     1
102
RTVSPropertyOp5
 70
     1
102
RTVSPropertyOp6
 70
     1
102
RTVSPropertyOp7
 70
     1
102
RTVSPropertyOp8
 70
     1
102
RTVSPropertyOp9
 70
     1
102
RTVSPropertyOp10
 70
     1
102
RTVSPropertyOp11
 70
     1
102
RTVSPropertyOp12
 70
     1
102
RTVSPropertyOp13
 70
     1
102
RTVSPropertyOp14
 70
     1
102
RTVSPropertyOp15
 70
     1
102
RTVSPropertyOp16
 70
     1
102
RTVSPropertyOp17
 70
     1
102
RTVSPropertyOp18
 70
     1
102
RTVSPropertyOp19
 70
     1
102
RTVSPropertyOp20
 70
     1
102
RTVSPropertyOp21
 70
     1
102
RTVSPropertyOp22
 70
     1
102
RTVSPropertyOp23
 70
     1
102
RTVSPropertyOp24
 70
     1
102
RTVSPropertyOp25
 70
     1
102
RTVSPropertyOp26
 70
     1
102
RTVSPropertyOp27
 70
     1
102
RTVSPropertyOp28
 70
     1
102
RTVSPropertyOp29
 70
     1
102
RTVSPropertyOp30
 70
     1
102
RTVSPropertyOp31
 70
     1
102
RTVSPropertyOp32
 70
     1
102
RTVSPropertyOp33
 70
     1
102
RTVSPropertyOp34
 70
     1
102
RTVSPropertyOp35
 70
     1
102
RTVSPropertyOp36
 70
     1
102
RTVSPropertyOp37
 70
     1
102
RTVSPropertyOp38
 70
     1
102
RTVSPropertyOp39
 70
     1
102
RTVSPropertyOp40
 70
     1
102
RTVSPropertyOp41
 70
     1
102
RTVSPropertyOp42
 70
     1
102
RTVSPropertyOp43
 70
     1
102
RTVSPropertyOp44
 70
     1
102
RTVSPropertyOp45
 70
     1
102
RTVSPropertyOp46
 70
     1
102
RTVSPropertyOp47
 70
     1
102
RTVSPropertyOp48
 70
     1
102
RTVSPropertyOp49
 70
     1
102
RTVSPropertyOp50
 70
     1
102
RTVSPropertyOp51
 70
     0
102
RTVSPropertyOp52
 70
     0
102
RTVSPropertyOp53
 70
     1
102
RTVSPropertyOp54
 70
     1
102
RTVSPropertyOp55
 70
     1
102
RTVSPropertyOp56
 70
     1
102
RTVSPropertyOp57
 70
     1
102
RTVSPost2010Prop28
280
     0
102
RTVSPost2010PropOp28
 70
     1
102
RTVSPost2010Prop29
280
     1
102
RTVSPost2010PropOp29
 70
     1
102
RTVSPost2010Prop30
280
     1
102
RTVSPost2010PropOp30
 70
     1
102
RTVSPost2010Prop31
280
     0
102
RTVSPost2010PropOp31
 70
     1
102
RTVSPost2010Prop32
280
     0
102
RTVSPost2010PropOp32
 70
     1
102
RTVSPost2010Prop33
280
     0
102
RTVSPost2010PropOp33
 70
     1
102
RTVSPost2010Prop34
280
     0
102
RTVSPost2010PropOp34
 70
     1
102
RTVSPost2010Prop35
280
     0
102
RTVSPost2010PropOp35
 70
     1
102
RTVSPost2010Prop36
280
     0
102
RTVSPost2010PropOp36
 70
     1
102
RTVSPost2010Prop37
 90
       50
102
RTVSPost2010PropOp37
 70
     1
102
RTVSPost2010Prop38
140
0.0
102
RTVSPost2010PropOp38
 70
     1
102
RTVSPost2010Prop39
140
1.0
102
RTVSPost2010PropOp39
 70
     1
102
RTVSPost2010Prop40
 90
        0
102
RTVSPost2010PropOp40
 70
     1
102
RTVSPost2010Prop41ColorIndex
 90
       18
102
RTVSPost2010Prop41ColorRGB
 90
        0
102
RTVSPost2010PropOp41
 70
     1
102
RTVSPost2010Prop42
 90
       50
102
RTVSPost2010PropOp42
 70
     1
102
RTVSPost2010Prop43
 90
        3
102
RTVSPost2010PropOp43
 70
     1
102
RTVSPost2010Prop44ColorIndex
 90
        5
102
RTVSPost2010Prop44ColorRGB
 90
      255
102
RTVSPost2010PropOp44
 70
     1
102
RTVSPost2010Prop45
280
     0
102
RTVSPost2010PropOp45
 70
     1
102
RTVSPost2010Prop46
 90
       50
102
RTVSPost2010PropOp46
 70
     1
102
RTVSPost2010Prop47
 90
       50
102
RTVSPost2010PropOp47
 70
     1
102
RTVSPost2010Prop48
 90
       50
102
RTVSPost2010PropOp48
 70
     1
102
RTVSPost2010Prop49
280
     0
102
RTVSPost2010PropOp49
 70
     1
102
RTVSPost2010Prop50
 90
       50
102
RTVSPost2010PropOp50
 70
     1
102
RTVSPost2010Prop51ColorIndex
 90
      256
102
RTVSPost2010Prop51ColorRGB
 90
-16777216
102
RTVSPost2010PropOp51
 70
     0
102
RTVSPost2010Prop52
140
1.0
102
RTVSPost2010PropOp52
 70
     0
102
RTVSPost2010Prop53
 90
        2
102
RTVSPost2010PropOp53
 70
     1
102
RTVSPost2010Prop54
  1
strokes_ogs.tif
102
RTVSPost2010PropOp54
 70
     1
102
RTVSPost2010Prop55
280
     0
102
RTVSPost2010PropOp55
 70
     1
102
RTVSPost2010Prop56
140
1.0
102
RTVSPost2010PropOp56
 70
     1
102
RTVSPost2010Prop57
140
1.0
102
RTVSPost2010PropOp57
 70
     1
  0
XRECORD
  5
369
102
{ACAD_REACTORS
330
368
102
}
330
368
100
AcDbXrecord
280
     1
102
RTVSPropertyOp0
 70
     1
102
RTVSPropertyOp1
 70
     1
102
RTVSPropertyOp2
 70
     1
102
RTVSPropertyOp3
 70
     1
102
RTVSPropertyOp4
 70
     1
102
RTVSPropertyOp5
 70
     1
102
RTVSPropertyOp6
 70
     1
102
RTVSPropertyOp7
 70
     1
102
RTVSPropertyOp8
 70
     1
102
RTVSPropertyOp9
 70
     1
102
RTVSPropertyOp10
 70
     1
102
RTVSPropertyOp11
 70
     1
102
RTVSPropertyOp12
 70
     1
102
RTVSPropertyOp13
 70
     1
102
RTVSPropertyOp14
 70
     1
102
RTVSPropertyOp15
 70
     1
102
RTVSPropertyOp16
 70
     1
102
RTVSPropertyOp17
 70
     1
102
RTVSPropertyOp18
 70
     1
102
RTVSPropertyOp19
 70
     1
102
RTVSPropertyOp20
 70
     1
102
RTVSPropertyOp21
 70
     1
102
RTVSPropertyOp22
 70
     1
102
RTVSPropertyOp23
 70
     1
102
RTVSPropertyOp24
 70
     1
102
RTVSPropertyOp25
 70
     1
102
RTVSPropertyOp26
 70
     1
102
RTVSPropertyOp27
 70
     1
102
RTVSPropertyOp28
 70
     1
102
RTVSPropertyOp29
 70
     1
102
RTVSPropertyOp30
 70
     1
102
RTVSPropertyOp31
 70
     1
102
RTVSPropertyOp32
 70
     1
102
RTVSPropertyOp33
 70
     1
102
RTVSPropertyOp34
 70
     1
102
RTVSPropertyOp35
 70
     1
102
RTVSPropertyOp36
 70
     1
102
RTVSPropertyOp37
 70
     1
102
RTVSPropertyOp38
 70
     1
102
RTVSPropertyOp39
 70
     1
102
RTVSPropertyOp40
 70
     1
102
RTVSPropertyOp41
 70
     1
102
RTVSPropertyOp42
 70
     1
102
RTVSPropertyOp43
 70
     1
102
RTVSPropertyOp44
 70
     1
102
RTVSPropertyOp45
 70
     1
102
RTVSPropertyOp46
 70
     1
102
RTVSPropertyOp47
 70
     1
102
RTVSPropertyOp48
 70
     1
102
RTVSPropertyOp49
 70
     1
102
RTVSPropertyOp50
 70
     1
102
RTVSPropertyOp51
 70
     0
102
RTVSPropertyOp52
 70
     0
102
RTVSPropertyOp53
 70
     1
102
RTVSPropertyOp54
 70
     1
102
RTVSPropertyOp55
 70
     1
102
RTVSPropertyOp56
 70
     1
102
RTVSPropertyOp57
 70
     1
102
RTVSPost2010Prop28
280
     0
102
RTVSPost2010PropOp28
 70
     1
102
RTVSPost2010Prop29
280
     1
102
RTVSPost2010PropOp29
 70
     1
102
RTVSPost2010Prop30
280
     1
102
RTVSPost2010PropOp30
 70
     1
102
RTVSPost2010Prop31
280
     0
102
RTVSPost2010PropOp31
 70
     1
102
RTVSPost2010Prop32
280
     0
102
RTVSPost2010PropOp32
 70
     1
102
RTVSPost2010Prop33
280
     0
102
RTVSPost2010PropOp33
 70
     1
102
RTVSPost2010Prop34
280
     0
102
RTVSPost2010PropOp34
 70
     1
102
RTVSPost2010Prop35
280
     0
102
RTVSPost2010PropOp35
 70
     1
102
RTVSPost2010Prop36
280
     0
102
RTVSPost2010PropOp36
 70
     1
102
RTVSPost2010Prop37
 90
       50
102
RTVSPost2010PropOp37
 70
     1
102
RTVSPost2010Prop38
140
0.0
102
RTVSPost2010PropOp38
 70
     1
102
RTVSPost2010Prop39
140
1.0
102
RTVSPost2010PropOp39
 70
     1
102
RTVSPost2010Prop40
 90
        0
102
RTVSPost2010PropOp40
 70
     1
102
RTVSPost2010Prop41ColorIndex
 90
       18
102
RTVSPost2010Prop41ColorRGB
 90
        0
102
RTVSPost2010PropOp41
 70
     1
102
RTVSPost2010Prop42
 90
       50
102
RTVSPost2010PropOp42
 70
     1
102
RTVSPost2010Prop43
 90
        3
102
RTVSPost2010PropOp43
 70
     1
102
RTVSPost2010Prop44ColorIndex
 90
        5
102
RTVSPost2010Prop44ColorRGB
 90
      255
102
RTVSPost2010PropOp44
 70
     1
102
RTVSPost2010Prop45
280
     0
102
RTVSPost2010PropOp45
 70
     1
102
RTVSPost2010Prop46
 90
       50
102
RTVSPost2010PropOp46
 70
     1
102
RTVSPost2010Prop47
 90
       50
102
RTVSPost2010PropOp47
 70
     1
102
RTVSPost2010Prop48
 90
       50
102
RTVSPost2010PropOp48
 70
     1
102
RTVSPost2010Prop49
280
     0
102
RTVSPost2010PropOp49
 70
     1
102
RTVSPost2010Prop50
 90
       50
102
RTVSPost2010PropOp50
 70
     1
102
RTVSPost2010Prop51ColorIndex
 90
      256
102
RTVSPost2010Prop51ColorRGB
 90
-16777216
102
RTVSPost2010PropOp51
 70
     0
102
RTVSPost2010Prop52
140
1.0
102
RTVSPost2010PropOp52
 70
     0
102
RTVSPost2010Prop53
 90
        2
102
RTVSPost2010PropOp53
 70
     1
102
RTVSPost2010Prop54
  1
strokes_ogs.tif
102
RTVSPost2010PropOp54
 70
     1
102
RTVSPost2010Prop55
280
     0
102
RTVSPost2010PropOp55
 70
     1
102
RTVSPost2010Prop56
140
1.0
102
RTVSPost2010PropOp56
 70
     1
102
RTVSPost2010Prop57
140
1.0
102
RTVSPost2010PropOp57
 70
     1
  0
XRECORD
  5
379
102
{ACAD_REACTORS
330
378
102
}
330
378
100
AcDbXrecord
280
     1
102
RTVSPropertyOp0
 70
     0
102
RTVSPropertyOp1
 70
     0
102
RTVSPropertyOp2
 70
     0
102
RTVSPropertyOp3
 70
     0
102
RTVSPropertyOp4
 70
     0
102
RTVSPropertyOp5
 70
     0
102
RTVSPropertyOp6
 70
     0
102
RTVSPropertyOp7
 70
     0
102
RTVSPropertyOp8
 70
     0
102
RTVSPropertyOp9
 70
     0
102
RTVSPropertyOp10
 70
     0
102
RTVSPropertyOp11
 70
     0
102
RTVSPropertyOp12
 70
     0
102
RTVSPropertyOp13
 70
     0
102
RTVSPropertyOp14
 70
     2
102
RTVSPropertyOp15
 70
     0
102
RTVSPropertyOp16
 70
     0
102
RTVSPropertyOp17
 70
     0
102
RTVSPropertyOp18
 70
     0
102
RTVSPropertyOp19
 70
     0
102
RTVSPropertyOp20
 70
     0
102
RTVSPropertyOp21
 70
     0
102
RTVSPropertyOp22
 70
     0
102
RTVSPropertyOp23
 70
     0
102
RTVSPropertyOp24
 70
     0
102
RTVSPropertyOp25
 70
     0
102
RTVSPropertyOp26
 70
     0
102
RTVSPropertyOp27
 70
     0
102
RTVSPropertyOp28
 70
     0
102
RTVSPropertyOp29
 70
     0
102
RTVSPropertyOp30
 70
     0
102
RTVSPropertyOp31
 70
     0
102
RTVSPropertyOp32
 70
     0
102
RTVSPropertyOp33
 70
     0
102
RTVSPropertyOp34
 70
     0
102
RTVSPropertyOp35
 70
     0
102
RTVSPropertyOp36
 70
     0
102
RTVSPropertyOp37
 70
     0
102
RTVSPropertyOp38
 70
     0
102
RTVSPropertyOp39
 70
     0
102
RTVSPropertyOp40
 70
     0
102
RTVSPropertyOp41
 70
     0
102
RTVSPropertyOp42
 70
     0
102
RTVSPropertyOp43
 70
     0
102
RTVSPropertyOp44
 70
     0
102
RTVSPropertyOp45
 70
     0
102
RTVSPropertyOp46
 70
     0
102
RTVSPropertyOp47
 70
     0
102
RTVSPropertyOp48
 70
     0
102
RTVSPropertyOp49
 70
     0
102
RTVSPropertyOp50
 70
     0
102
RTVSPropertyOp51
 70
     0
102
RTVSPropertyOp52
 70
     0
102
RTVSPropertyOp53
 70
     0
102
RTVSPropertyOp54
 70
     0
102
RTVSPropertyOp55
 70
     0
102
RTVSPropertyOp56
 70
     0
102
RTVSPropertyOp57
 70
     0
102
RTVSPost2010Prop28
280
     0
102
RTVSPost2010PropOp28
 70
     0
102
RTVSPost2010Prop29
280
     1
102
RTVSPost2010PropOp29
 70
     0
102
RTVSPost2010Prop30
280
     1
102
RTVSPost2010PropOp30
 70
     0
102
RTVSPost2010Prop31
280
     0
102
RTVSPost2010PropOp31
 70
     0
102
RTVSPost2010Prop32
280
     0
102
RTVSPost2010PropOp32
 70
     0
102
RTVSPost2010Prop33
280
     0
102
RTVSPost2010PropOp33
 70
     0
102
RTVSPost2010Prop34
280
     0
102
RTVSPost2010PropOp34
 70
     0
102
RTVSPost2010Prop35
280
     0
102
RTVSPost2010PropOp35
 70
     0
102
RTVSPost2010Prop36
280
     0
102
RTVSPost2010PropOp36
 70
     0
102
RTVSPost2010Prop37
 90
       50
102
RTVSPost2010PropOp37
 70
     0
102
RTVSPost2010Prop38
140
0.0
102
RTVSPost2010PropOp38
 70
     0
102
RTVSPost2010Prop39
140
1.0
102
RTVSPost2010PropOp39
 70
     0
102
RTVSPost2010Prop40
 90
        0
102
RTVSPost2010PropOp40
 70
     0
102
RTVSPost2010Prop41ColorIndex
 90
       18
102
RTVSPost2010Prop41ColorRGB
 90
        0
102
RTVSPost2010PropOp41
 70
     0
102
RTVSPost2010Prop42
 90
       50
102
RTVSPost2010PropOp42
 70
     0
102
RTVSPost2010Prop43
 90
        3
102
RTVSPost2010PropOp43
 70
     0
102
RTVSPost2010Prop44ColorIndex
 90
        5
102
RTVSPost2010Prop44ColorRGB
 90
      255
102
RTVSPost2010PropOp44
 70
     0
102
RTVSPost2010Prop45
280
     0
102
RTVSPost2010PropOp45
 70
     0
102
RTVSPost2010Prop46
 90
       50
102
RTVSPost2010PropOp46
 70
     0
102
RTVSPost2010Prop47
 90
       50
102
RTVSPost2010PropOp47
 70
     0
102
RTVSPost2010Prop48
 90
       50
102
RTVSPost2010PropOp48
 70
     0
102
RTVSPost2010Prop49
280
     0
102
RTVSPost2010PropOp49
 70
     0
102
RTVSPost2010Prop50
 90
       50
102
RTVSPost2010PropOp50
 70
     0
102
RTVSPost2010Prop51ColorIndex
 90
      256
102
RTVSPost2010Prop51ColorRGB
 90
-16777216
102
RTVSPost2010PropOp51
 70
     0
102
RTVSPost2010Prop52
140
1.0
102
RTVSPost2010PropOp52
 70
     0
102
RTVSPost2010Prop53
 90
        2
102
RTVSPost2010PropOp53
 70
     0
102
RTVSPost2010Prop54
  1
strokes_ogs.tif
102
RTVSPost2010PropOp54
 70
     0
102
RTVSPost2010Prop55
280
     0
102
RTVSPost2010PropOp55
 70
     0
102
RTVSPost2010Prop56
140
1.0
102
RTVSPost2010PropOp56
 70
     0
102
RTVSPost2010Prop57
140
1.0
102
RTVSPost2010PropOp57
 70
     0
  0
XRECORD
  5
371
102
{ACAD_REACTORS
330
370
102
}
330
370
100
AcDbXrecord
280
     1
102
RTVSPropertyOp0
 70
     1
102
RTVSPropertyOp1
 70
     1
102
RTVSPropertyOp2
 70
     1
102
RTVSPropertyOp3
 70
     1
102
RTVSPropertyOp4
 70
     1
102
RTVSPropertyOp5
 70
     1
102
RTVSPropertyOp6
 70
     1
102
RTVSPropertyOp7
 70
     1
102
RTVSPropertyOp8
 70
     1
102
RTVSPropertyOp9
 70
     1
102
RTVSPropertyOp10
 70
     1
102
RTVSPropertyOp11
 70
     1
102
RTVSPropertyOp12
 70
     1
102
RTVSPropertyOp13
 70
     1
102
RTVSPropertyOp14
 70
     1
102
RTVSPropertyOp15
 70
     1
102
RTVSPropertyOp16
 70
     1
102
RTVSPropertyOp17
 70
     1
102
RTVSPropertyOp18
 70
     1
102
RTVSPropertyOp19
 70
     1
102
RTVSPropertyOp20
 70
     1
102
RTVSPropertyOp21
 70
     1
102
RTVSPropertyOp22
 70
     1
102
RTVSPropertyOp23
 70
     1
102
RTVSPropertyOp24
 70
     1
102
RTVSPropertyOp25
 70
     1
102
RTVSPropertyOp26
 70
     1
102
RTVSPropertyOp27
 70
     1
102
RTVSPropertyOp28
 70
     1
102
RTVSPropertyOp29
 70
     1
102
RTVSPropertyOp30
 70
     1
102
RTVSPropertyOp31
 70
     1
102
RTVSPropertyOp32
 70
     1
102
RTVSPropertyOp33
 70
     1
102
RTVSPropertyOp34
 70
     1
102
RTVSPropertyOp35
 70
     1
102
RTVSPropertyOp36
 70
     1
102
RTVSPropertyOp37
 70
     1
102
RTVSPropertyOp38
 70
     1
102
RTVSPropertyOp39
 70
     1
102
RTVSPropertyOp40
 70
     1
102
RTVSPropertyOp41
 70
     1
102
RTVSPropertyOp42
 70
     1
102
RTVSPropertyOp43
 70
     1
102
RTVSPropertyOp44
 70
     1
102
RTVSPropertyOp45
 70
     1
102
RTVSPropertyOp46
 70
     1
102
RTVSPropertyOp47
 70
     1
102
RTVSPropertyOp48
 70
     1
102
RTVSPropertyOp49
 70
     1
102
RTVSPropertyOp50
 70
     1
102
RTVSPropertyOp51
 70
     0
102
RTVSPropertyOp52
 70
     0
102
RTVSPropertyOp53
 70
     1
102
RTVSPropertyOp54
 70
     1
102
RTVSPropertyOp55
 70
     1
102
RTVSPropertyOp56
 70
     1
102
RTVSPropertyOp57
 70
     1
102
RTVSPost2010Prop28
280
     0
102
RTVSPost2010PropOp28
 70
     1
102
RTVSPost2010Prop29
280
     1
102
RTVSPost2010PropOp29
 70
     1
102
RTVSPost2010Prop30
280
     1
102
RTVSPost2010PropOp30
 70
     1
102
RTVSPost2010Prop31
280
     0
102
RTVSPost2010PropOp31
 70
     1
102
RTVSPost2010Prop32
280
     0
102
RTVSPost2010PropOp32
 70
     1
102
RTVSPost2010Prop33
280
     0
102
RTVSPost2010PropOp33
 70
     1
102
RTVSPost2010Prop34
280
     0
102
RTVSPost2010PropOp34
 70
     1
102
RTVSPost2010Prop35
280
     0
102
RTVSPost2010PropOp35
 70
     1
102
RTVSPost2010Prop36
280
     0
102
RTVSPost2010PropOp36
 70
     1
102
RTVSPost2010Prop37
 90
       50
102
RTVSPost2010PropOp37
 70
     1
102
RTVSPost2010Prop38
140
0.0
102
RTVSPost2010PropOp38
 70
     1
102
RTVSPost2010Prop39
140
1.0
102
RTVSPost2010PropOp39
 70
     1
102
RTVSPost2010Prop40
 90
        0
102
RTVSPost2010PropOp40
 70
     1
102
RTVSPost2010Prop41ColorIndex
 90
       18
102
RTVSPost2010Prop41ColorRGB
 90
        0
102
RTVSPost2010PropOp41
 70
     1
102
RTVSPost2010Prop42
 90
       50
102
RTVSPost2010PropOp42
 70
     1
102
RTVSPost2010Prop43
 90
        3
102
RTVSPost2010PropOp43
 70
     1
102
RTVSPost2010Prop44ColorIndex
 90
        5
102
RTVSPost2010Prop44ColorRGB
 90
      255
102
RTVSPost2010PropOp44
 70
     1
102
RTVSPost2010Prop45
280
     0
102
RTVSPost2010PropOp45
 70
     1
102
RTVSPost2010Prop46
 90
       50
102
RTVSPost2010PropOp46
 70
     1
102
RTVSPost2010Prop47
 90
       50
102
RTVSPost2010PropOp47
 70
     1
102
RTVSPost2010Prop48
 90
       50
102
RTVSPost2010PropOp48
 70
     1
102
RTVSPost2010Prop49
280
     0
102
RTVSPost2010PropOp49
 70
     1
102
RTVSPost2010Prop50
 90
       50
102
RTVSPost2010PropOp50
 70
     1
102
RTVSPost2010Prop51ColorIndex
 90
      256
102
RTVSPost2010Prop51ColorRGB
 90
-16777216
102
RTVSPost2010PropOp51
 70
     0
102
RTVSPost2010Prop52
140
1.0
102
RTVSPost2010PropOp52
 70
     0
102
RTVSPost2010Prop53
 90
        2
102
RTVSPost2010PropOp53
 70
     1
102
RTVSPost2010Prop54
  1
strokes_ogs.tif
102
RTVSPost2010PropOp54
 70
     1
102
RTVSPost2010Prop55
280
     0
102
RTVSPost2010PropOp55
 70
     1
102
RTVSPost2010Prop56
140
1.0
102
RTVSPost2010PropOp56
 70
     1
102
RTVSPost2010Prop57
140
1.0
102
RTVSPost2010PropOp57
 70
     1
  0
XRECORD
  5
355
102
{ACAD_REACTORS
330
354
102
}
330
354
100
AcDbXrecord
280
     1
102
RTVSPropertyOp0
 70
     1
102
RTVSPropertyOp1
 70
     1
102
RTVSPropertyOp2
 70
     1
102
RTVSPropertyOp3
 70
     1
102
RTVSPropertyOp4
 70
     1
102
RTVSPropertyOp5
 70
     1
102
RTVSPropertyOp6
 70
     1
102
RTVSPropertyOp7
 70
     1
102
RTVSPropertyOp8
 70
     1
102
RTVSPropertyOp9
 70
     1
102
RTVSPropertyOp10
 70
     1
102
RTVSPropertyOp11
 70
     1
102
RTVSPropertyOp12
 70
     1
102
RTVSPropertyOp13
 70
     1
102
RTVSPropertyOp14
 70
     1
102
RTVSPropertyOp15
 70
     1
102
RTVSPropertyOp16
 70
     1
102
RTVSPropertyOp17
 70
     1
102
RTVSPropertyOp18
 70
     1
102
RTVSPropertyOp19
 70
     1
102
RTVSPropertyOp20
 70
     1
102
RTVSPropertyOp21
 70
     1
102
RTVSPropertyOp22
 70
     1
102
RTVSPropertyOp23
 70
     1
102
RTVSPropertyOp24
 70
     1
102
RTVSPropertyOp25
 70
     1
102
RTVSPropertyOp26
 70
     1
102
RTVSPropertyOp27
 70
     1
102
RTVSPropertyOp28
 70
     1
102
RTVSPropertyOp29
 70
     1
102
RTVSPropertyOp30
 70
     1
102
RTVSPropertyOp31
 70
     1
102
RTVSPropertyOp32
 70
     1
102
RTVSPropertyOp33
 70
     1
102
RTVSPropertyOp34
 70
     1
102
RTVSPropertyOp35
 70
     1
102
RTVSPropertyOp36
 70
     1
102
RTVSPropertyOp37
 70
     1
102
RTVSPropertyOp38
 70
     1
102
RTVSPropertyOp39
 70
     1
102
RTVSPropertyOp40
 70
     1
102
RTVSPropertyOp41
 70
     1
102
RTVSPropertyOp42
 70
     1
102
RTVSPropertyOp43
 70
     1
102
RTVSPropertyOp44
 70
     1
102
RTVSPropertyOp45
 70
     1
102
RTVSPropertyOp46
 70
     1
102
RTVSPropertyOp47
 70
     1
102
RTVSPropertyOp48
 70
     1
102
RTVSPropertyOp49
 70
     1
102
RTVSPropertyOp50
 70
     1
102
RTVSPropertyOp51
 70
     0
102
RTVSPropertyOp52
 70
     0
102
RTVSPropertyOp53
 70
     1
102
RTVSPropertyOp54
 70
     1
102
RTVSPropertyOp55
 70
     1
102
RTVSPropertyOp56
 70
     1
102
RTVSPropertyOp57
 70
     1
102
RTVSPost2010Prop28
280
     0
102
RTVSPost2010PropOp28
 70
     1
102
RTVSPost2010Prop29
280
     1
102
RTVSPost2010PropOp29
 70
     1
102
RTVSPost2010Prop30
280
     1
102
RTVSPost2010PropOp30
 70
     1
102
RTVSPost2010Prop31
280
     0
102
RTVSPost2010PropOp31
 70
     1
102
RTVSPost2010Prop32
280
     0
102
RTVSPost2010PropOp32
 70
     1
102
RTVSPost2010Prop33
280
     0
102
RTVSPost2010PropOp33
 70
     1
102
RTVSPost2010Prop34
280
     0
102
RTVSPost2010PropOp34
 70
     1
102
RTVSPost2010Prop35
280
     0
102
RTVSPost2010PropOp35
 70
     1
102
RTVSPost2010Prop36
280
     0
102
RTVSPost2010PropOp36
 70
     1
102
RTVSPost2010Prop37
 90
       50
102
RTVSPost2010PropOp37
 70
     1
102
RTVSPost2010Prop38
140
0.0
102
RTVSPost2010PropOp38
 70
     1
102
RTVSPost2010Prop39
140
1.0
102
RTVSPost2010PropOp39
 70
     1
102
RTVSPost2010Prop40
 90
        0
102
RTVSPost2010PropOp40
 70
     1
102
RTVSPost2010Prop41ColorIndex
 90
       18
102
RTVSPost2010Prop41ColorRGB
 90
        0
102
RTVSPost2010PropOp41
 70
     1
102
RTVSPost2010Prop42
 90
       50
102
RTVSPost2010PropOp42
 70
     1
102
RTVSPost2010Prop43
 90
        3
102
RTVSPost2010PropOp43
 70
     1
102
RTVSPost2010Prop44ColorIndex
 90
        5
102
RTVSPost2010Prop44ColorRGB
 90
      255
102
RTVSPost2010PropOp44
 70
     1
102
RTVSPost2010Prop45
280
     0
102
RTVSPost2010PropOp45
 70
     1
102
RTVSPost2010Prop46
 90
       50
102
RTVSPost2010PropOp46
 70
     1
102
RTVSPost2010Prop47
 90
       50
102
RTVSPost2010PropOp47
 70
     1
102
RTVSPost2010Prop48
 90
       50
102
RTVSPost2010PropOp48
 70
     1
102
RTVSPost2010Prop49
280
     0
102
RTVSPost2010PropOp49
 70
     1
102
RTVSPost2010Prop50
 90
       50
102
RTVSPost2010PropOp50
 70
     1
102
RTVSPost2010Prop51ColorIndex
 90
      256
102
RTVSPost2010Prop51ColorRGB
 90
-16777216
102
RTVSPost2010PropOp51
 70
     0
102
RTVSPost2010Prop52
140
1.0
102
RTVSPost2010PropOp52
 70
     0
102
RTVSPost2010Prop53
 90
        2
102
RTVSPost2010PropOp53
 70
     1
102
RTVSPost2010Prop54
  1
strokes_ogs.tif
102
RTVSPost2010PropOp54
 70
     1
102
RTVSPost2010Prop55
280
     0
102
RTVSPost2010PropOp55
 70
     1
102
RTVSPost2010Prop56
140
1.0
102
RTVSPost2010PropOp56
 70
     1
102
RTVSPost2010Prop57
140
1.0
102
RTVSPost2010PropOp57
 70
     1
  0
XRECORD
  5
357
102
{ACAD_REACTORS
330
356
102
}
330
356
100
AcDbXrecord
280
     1
102
RTVSPropertyOp0
 70
     1
102
RTVSPropertyOp1
 70
     1
102
RTVSPropertyOp2
 70
     1
102
RTVSPropertyOp3
 70
     1
102
RTVSPropertyOp4
 70
     1
102
RTVSPropertyOp5
 70
     1
102
RTVSPropertyOp6
 70
     1
102
RTVSPropertyOp7
 70
     1
102
RTVSPropertyOp8
 70
     1
102
RTVSPropertyOp9
 70
     1
102
RTVSPropertyOp10
 70
     1
102
RTVSPropertyOp11
 70
     1
102
RTVSPropertyOp12
 70
     1
102
RTVSPropertyOp13
 70
     1
102
RTVSPropertyOp14
 70
     1
102
RTVSPropertyOp15
 70
     1
102
RTVSPropertyOp16
 70
     1
102
RTVSPropertyOp17
 70
     1
102
RTVSPropertyOp18
 70
     1
102
RTVSPropertyOp19
 70
     1
102
RTVSPropertyOp20
 70
     1
102
RTVSPropertyOp21
 70
     1
102
RTVSPropertyOp22
 70
     1
102
RTVSPropertyOp23
 70
     1
102
RTVSPropertyOp24
 70
     1
102
RTVSPropertyOp25
 70
     1
102
RTVSPropertyOp26
 70
     1
102
RTVSPropertyOp27
 70
     1
102
RTVSPropertyOp28
 70
     1
102
RTVSPropertyOp29
 70
     1
102
RTVSPropertyOp30
 70
     1
102
RTVSPropertyOp31
 70
     1
102
RTVSPropertyOp32
 70
     1
102
RTVSPropertyOp33
 70
     1
102
RTVSPropertyOp34
 70
     1
102
RTVSPropertyOp35
 70
     1
102
RTVSPropertyOp36
 70
     1
102
RTVSPropertyOp37
 70
     1
102
RTVSPropertyOp38
 70
     1
102
RTVSPropertyOp39
 70
     1
102
RTVSPropertyOp40
 70
     1
102
RTVSPropertyOp41
 70
     1
102
RTVSPropertyOp42
 70
     1
102
RTVSPropertyOp43
 70
     1
102
RTVSPropertyOp44
 70
     1
102
RTVSPropertyOp45
 70
     1
102
RTVSPropertyOp46
 70
     1
102
RTVSPropertyOp47
 70
     1
102
RTVSPropertyOp48
 70
     1
102
RTVSPropertyOp49
 70
     1
102
RTVSPropertyOp50
 70
     1
102
RTVSPropertyOp51
 70
     0
102
RTVSPropertyOp52
 70
     0
102
RTVSPropertyOp53
 70
     1
102
RTVSPropertyOp54
 70
     1
102
RTVSPropertyOp55
 70
     1
102
RTVSPropertyOp56
 70
     1
102
RTVSPropertyOp57
 70
     1
102
RTVSPost2010Prop28
280
     0
102
RTVSPost2010PropOp28
 70
     1
102
RTVSPost2010Prop29
280
     1
102
RTVSPost2010PropOp29
 70
     1
102
RTVSPost2010Prop30
280
     1
102
RTVSPost2010PropOp30
 70
     1
102
RTVSPost2010Prop31
280
     0
102
RTVSPost2010PropOp31
 70
     1
102
RTVSPost2010Prop32
280
     0
102
RTVSPost2010PropOp32
 70
     1
102
RTVSPost2010Prop33
280
     0
102
RTVSPost2010PropOp33
 70
     1
102
RTVSPost2010Prop34
280
     0
102
RTVSPost2010PropOp34
 70
     1
102
RTVSPost2010Prop35
280
     0
102
RTVSPost2010PropOp35
 70
     1
102
RTVSPost2010Prop36
280
     0
102
RTVSPost2010PropOp36
 70
     1
102
RTVSPost2010Prop37
 90
       50
102
RTVSPost2010PropOp37
 70
     1
102
RTVSPost2010Prop38
140
0.0
102
RTVSPost2010PropOp38
 70
     1
102
RTVSPost2010Prop39
140
1.0
102
RTVSPost2010PropOp39
 70
     1
102
RTVSPost2010Prop40
 90
        0
102
RTVSPost2010PropOp40
 70
     1
102
RTVSPost2010Prop41ColorIndex
 90
       18
102
RTVSPost2010Prop41ColorRGB
 90
        0
102
RTVSPost2010PropOp41
 70
     1
102
RTVSPost2010Prop42
 90
       50
102
RTVSPost2010PropOp42
 70
     1
102
RTVSPost2010Prop43
 90
        3
102
RTVSPost2010PropOp43
 70
     1
102
RTVSPost2010Prop44ColorIndex
 90
        5
102
RTVSPost2010Prop44ColorRGB
 90
      255
102
RTVSPost2010PropOp44
 70
     1
102
RTVSPost2010Prop45
280
     0
102
RTVSPost2010PropOp45
 70
     1
102
RTVSPost2010Prop46
 90
       50
102
RTVSPost2010PropOp46
 70
     1
102
RTVSPost2010Prop47
 90
       50
102
RTVSPost2010PropOp47
 70
     1
102
RTVSPost2010Prop48
 90
       50
102
RTVSPost2010PropOp48
 70
     1
102
RTVSPost2010Prop49
280
     0
102
RTVSPost2010PropOp49
 70
     1
102
RTVSPost2010Prop50
 90
       50
102
RTVSPost2010PropOp50
 70
     1
102
RTVSPost2010Prop51ColorIndex
 90
      256
102
RTVSPost2010Prop51ColorRGB
 90
-16777216
102
RTVSPost2010PropOp51
 70
     0
102
RTVSPost2010Prop52
140
1.0
102
RTVSPost2010PropOp52
 70
     0
102
RTVSPost2010Prop53
 90
        2
102
RTVSPost2010PropOp53
 70
     1
102
RTVSPost2010Prop54
  1
strokes_ogs.tif
102
RTVSPost2010PropOp54
 70
     1
102
RTVSPost2010Prop55
280
     0
102
RTVSPost2010PropOp55
 70
     1
102
RTVSPost2010Prop56
140
1.0
102
RTVSPost2010PropOp56
 70
     1
102
RTVSPost2010Prop57
140
1.0
102
RTVSPost2010PropOp57
 70
     1
  0
XRECORD
  5
359
102
{ACAD_REACTORS
330
358
102
}
330
358
100
AcDbXrecord
280
     1
102
RTVSPropertyOp0
 70
     1
102
RTVSPropertyOp1
 70
     1
102
RTVSPropertyOp2
 70
     1
102
RTVSPropertyOp3
 70
     1
102
RTVSPropertyOp4
 70
     1
102
RTVSPropertyOp5
 70
     1
102
RTVSPropertyOp6
 70
     1
102
RTVSPropertyOp7
 70
     1
102
RTVSPropertyOp8
 70
     1
102
RTVSPropertyOp9
 70
     1
102
RTVSPropertyOp10
 70
     1
102
RTVSPropertyOp11
 70
     1
102
RTVSPropertyOp12
 70
     1
102
RTVSPropertyOp13
 70
     1
102
RTVSPropertyOp14
 70
     1
102
RTVSPropertyOp15
 70
     1
102
RTVSPropertyOp16
 70
     1
102
RTVSPropertyOp17
 70
     1
102
RTVSPropertyOp18
 70
     1
102
RTVSPropertyOp19
 70
     1
102
RTVSPropertyOp20
 70
     1
102
RTVSPropertyOp21
 70
     1
102
RTVSPropertyOp22
 70
     1
102
RTVSPropertyOp23
 70
     1
102
RTVSPropertyOp24
 70
     1
102
RTVSPropertyOp25
 70
     1
102
RTVSPropertyOp26
 70
     1
102
RTVSPropertyOp27
 70
     1
102
RTVSPropertyOp28
 70
     1
102
RTVSPropertyOp29
 70
     1
102
RTVSPropertyOp30
 70
     1
102
RTVSPropertyOp31
 70
     1
102
RTVSPropertyOp32
 70
     1
102
RTVSPropertyOp33
 70
     1
102
RTVSPropertyOp34
 70
     1
102
RTVSPropertyOp35
 70
     1
102
RTVSPropertyOp36
 70
     1
102
RTVSPropertyOp37
 70
     1
102
RTVSPropertyOp38
 70
     1
102
RTVSPropertyOp39
 70
     1
102
RTVSPropertyOp40
 70
     1
102
RTVSPropertyOp41
 70
     1
102
RTVSPropertyOp42
 70
     1
102
RTVSPropertyOp43
 70
     1
102
RTVSPropertyOp44
 70
     1
102
RTVSPropertyOp45
 70
     1
102
RTVSPropertyOp46
 70
     1
102
RTVSPropertyOp47
 70
     1
102
RTVSPropertyOp48
 70
     1
102
RTVSPropertyOp49
 70
     1
102
RTVSPropertyOp50
 70
     1
102
RTVSPropertyOp51
 70
     0
102
RTVSPropertyOp52
 70
     0
102
RTVSPropertyOp53
 70
     1
102
RTVSPropertyOp54
 70
     1
102
RTVSPropertyOp55
 70
     1
102
RTVSPropertyOp56
 70
     1
102
RTVSPropertyOp57
 70
     1
102
RTVSPost2010Prop28
280
     0
102
RTVSPost2010PropOp28
 70
     1
102
RTVSPost2010Prop29
280
     1
102
RTVSPost2010PropOp29
 70
     1
102
RTVSPost2010Prop30
280
     1
102
RTVSPost2010PropOp30
 70
     1
102
RTVSPost2010Prop31
280
     0
102
RTVSPost2010PropOp31
 70
     1
102
RTVSPost2010Prop32
280
     0
102
RTVSPost2010PropOp32
 70
     1
102
RTVSPost2010Prop33
280
     0
102
RTVSPost2010PropOp33
 70
     1
102
RTVSPost2010Prop34
280
     0
102
RTVSPost2010PropOp34
 70
     1
102
RTVSPost2010Prop35
280
     0
102
RTVSPost2010PropOp35
 70
     1
102
RTVSPost2010Prop36
280
     0
102
RTVSPost2010PropOp36
 70
     1
102
RTVSPost2010Prop37
 90
       50
102
RTVSPost2010PropOp37
 70
     1
102
RTVSPost2010Prop38
140
0.0
102
RTVSPost2010PropOp38
 70
     1
102
RTVSPost2010Prop39
140
1.0
102
RTVSPost2010PropOp39
 70
     1
102
RTVSPost2010Prop40
 90
        0
102
RTVSPost2010PropOp40
 70
     1
102
RTVSPost2010Prop41ColorIndex
 90
       18
102
RTVSPost2010Prop41ColorRGB
 90
        0
102
RTVSPost2010PropOp41
 70
     1
102
RTVSPost2010Prop42
 90
       50
102
RTVSPost2010PropOp42
 70
     1
102
RTVSPost2010Prop43
 90
        3
102
RTVSPost2010PropOp43
 70
     1
102
RTVSPost2010Prop44ColorIndex
 90
        5
102
RTVSPost2010Prop44ColorRGB
 90
      255
102
RTVSPost2010PropOp44
 70
     1
102
RTVSPost2010Prop45
280
     0
102
RTVSPost2010PropOp45
 70
     1
102
RTVSPost2010Prop46
 90
       50
102
RTVSPost2010PropOp46
 70
     1
102
RTVSPost2010Prop47
 90
       50
102
RTVSPost2010PropOp47
 70
     1
102
RTVSPost2010Prop48
 90
       50
102
RTVSPost2010PropOp48
 70
     1
102
RTVSPost2010Prop49
280
     0
102
RTVSPost2010PropOp49
 70
     1
102
RTVSPost2010Prop50
 90
       50
102
RTVSPost2010PropOp50
 70
     1
102
RTVSPost2010Prop51ColorIndex
 90
      256
102
RTVSPost2010Prop51ColorRGB
 90
-16777216
102
RTVSPost2010PropOp51
 70
     0
102
RTVSPost2010Prop52
140
1.0
102
RTVSPost2010PropOp52
 70
     0
102
RTVSPost2010Prop53
 90
        2
102
RTVSPost2010PropOp53
 70
     1
102
RTVSPost2010Prop54
  1
strokes_ogs.tif
102
RTVSPost2010PropOp54
 70
     1
102
RTVSPost2010Prop55
280
     0
102
RTVSPost2010PropOp55
 70
     1
102
RTVSPost2010Prop56
140
1.0
102
RTVSPost2010PropOp56
 70
     1
102
RTVSPost2010Prop57
140
1.0
102
RTVSPost2010PropOp57
 70
     1
  0
XRECORD
  5
35B
102
{ACAD_REACTORS
330
35A
102
}
330
35A
100
AcDbXrecord
280
     1
102
RTVSPropertyOp0
 70
     1
102
RTVSPropertyOp1
 70
     1
102
RTVSPropertyOp2
 70
     1
102
RTVSPropertyOp3
 70
     1
102
RTVSPropertyOp4
 70
     1
102
RTVSPropertyOp5
 70
     1
102
RTVSPropertyOp6
 70
     1
102
RTVSPropertyOp7
 70
     1
102
RTVSPropertyOp8
 70
     1
102
RTVSPropertyOp9
 70
     1
102
RTVSPropertyOp10
 70
     1
102
RTVSPropertyOp11
 70
     1
102
RTVSPropertyOp12
 70
     1
102
RTVSPropertyOp13
 70
     1
102
RTVSPropertyOp14
 70
     1
102
RTVSPropertyOp15
 70
     1
102
RTVSPropertyOp16
 70
     1
102
RTVSPropertyOp17
 70
     1
102
RTVSPropertyOp18
 70
     1
102
RTVSPropertyOp19
 70
     1
102
RTVSPropertyOp20
 70
     1
102
RTVSPropertyOp21
 70
     1
102
RTVSPropertyOp22
 70
     1
102
RTVSPropertyOp23
 70
     1
102
RTVSPropertyOp24
 70
     1
102
RTVSPropertyOp25
 70
     1
102
RTVSPropertyOp26
 70
     1
102
RTVSPropertyOp27
 70
     1
102
RTVSPropertyOp28
 70
     1
102
RTVSPropertyOp29
 70
     1
102
RTVSPropertyOp30
 70
     1
102
RTVSPropertyOp31
 70
     1
102
RTVSPropertyOp32
 70
     1
102
RTVSPropertyOp33
 70
     1
102
RTVSPropertyOp34
 70
     1
102
RTVSPropertyOp35
 70
     1
102
RTVSPropertyOp36
 70
     1
102
RTVSPropertyOp37
 70
     1
102
RTVSPropertyOp38
 70
     1
102
RTVSPropertyOp39
 70
     1
102
RTVSPropertyOp40
 70
     1
102
RTVSPropertyOp41
 70
     1
102
RTVSPropertyOp42
 70
     1
102
RTVSPropertyOp43
 70
     1
102
RTVSPropertyOp44
 70
     1
102
RTVSPropertyOp45
 70
     1
102
RTVSPropertyOp46
 70
     1
102
RTVSPropertyOp47
 70
     1
102
RTVSPropertyOp48
 70
     1
102
RTVSPropertyOp49
 70
     1
102
RTVSPropertyOp50
 70
     1
102
RTVSPropertyOp51
 70
     0
102
RTVSPropertyOp52
 70
     0
102
RTVSPropertyOp53
 70
     1
102
RTVSPropertyOp54
 70
     1
102
RTVSPropertyOp55
 70
     1
102
RTVSPropertyOp56
 70
     1
102
RTVSPropertyOp57
 70
     1
102
RTVSPost2010Prop28
280
     0
102
RTVSPost2010PropOp28
 70
     1
102
RTVSPost2010Prop29
280
     1
102
RTVSPost2010PropOp29
 70
     1
102
RTVSPost2010Prop30
280
     1
102
RTVSPost2010PropOp30
 70
     1
102
RTVSPost2010Prop31
280
     0
102
RTVSPost2010PropOp31
 70
     1
102
RTVSPost2010Prop32
280
     0
102
RTVSPost2010PropOp32
 70
     1
102
RTVSPost2010Prop33
280
     0
102
RTVSPost2010PropOp33
 70
     1
102
RTVSPost2010Prop34
280
     0
102
RTVSPost2010PropOp34
 70
     1
102
RTVSPost2010Prop35
280
     0
102
RTVSPost2010PropOp35
 70
     1
102
RTVSPost2010Prop36
280
     0
102
RTVSPost2010PropOp36
 70
     1
102
RTVSPost2010Prop37
 90
       50
102
RTVSPost2010PropOp37
 70
     1
102
RTVSPost2010Prop38
140
0.0
102
RTVSPost2010PropOp38
 70
     1
102
RTVSPost2010Prop39
140
1.0
102
RTVSPost2010PropOp39
 70
     1
102
RTVSPost2010Prop40
 90
        0
102
RTVSPost2010PropOp40
 70
     1
102
RTVSPost2010Prop41ColorIndex
 90
       18
102
RTVSPost2010Prop41ColorRGB
 90
        0
102
RTVSPost2010PropOp41
 70
     1
102
RTVSPost2010Prop42
 90
       50
102
RTVSPost2010PropOp42
 70
     1
102
RTVSPost2010Prop43
 90
        3
102
RTVSPost2010PropOp43
 70
     1
102
RTVSPost2010Prop44ColorIndex
 90
        5
102
RTVSPost2010Prop44ColorRGB
 90
      255
102
RTVSPost2010PropOp44
 70
     1
102
RTVSPost2010Prop45
280
     0
102
RTVSPost2010PropOp45
 70
     1
102
RTVSPost2010Prop46
 90
       50
102
RTVSPost2010PropOp46
 70
     1
102
RTVSPost2010Prop47
 90
       50
102
RTVSPost2010PropOp47
 70
     1
102
RTVSPost2010Prop48
 90
       50
102
RTVSPost2010PropOp48
 70
     1
102
RTVSPost2010Prop49
280
     0
102
RTVSPost2010PropOp49
 70
     1
102
RTVSPost2010Prop50
 90
       50
102
RTVSPost2010PropOp50
 70
     1
102
RTVSPost2010Prop51ColorIndex
 90
      256
102
RTVSPost2010Prop51ColorRGB
 90
-16777216
102
RTVSPost2010PropOp51
 70
     0
102
RTVSPost2010Prop52
140
1.0
102
RTVSPost2010PropOp52
 70
     0
102
RTVSPost2010Prop53
 90
        2
102
RTVSPost2010PropOp53
 70
     1
102
RTVSPost2010Prop54
  1
strokes_ogs.tif
102
RTVSPost2010PropOp54
 70
     1
102
RTVSPost2010Prop55
280
     0
102
RTVSPost2010PropOp55
 70
     1
102
RTVSPost2010Prop56
140
1.0
102
RTVSPost2010PropOp56
 70
     1
102
RTVSPost2010Prop57
140
1.0
102
RTVSPost2010PropOp57
 70
     1
  0
XRECORD
  5
361
102
{ACAD_REACTORS
330
360
102
}
330
360
100
AcDbXrecord
280
     1
102
RTVSPropertyOp0
 70
     1
102
RTVSPropertyOp1
 70
     1
102
RTVSPropertyOp2
 70
     1
102
RTVSPropertyOp3
 70
     1
102
RTVSPropertyOp4
 70
     1
102
RTVSPropertyOp5
 70
     1
102
RTVSPropertyOp6
 70
     1
102
RTVSPropertyOp7
 70
     1
102
RTVSPropertyOp8
 70
     1
102
RTVSPropertyOp9
 70
     1
102
RTVSPropertyOp10
 70
     1
102
RTVSPropertyOp11
 70
     1
102
RTVSPropertyOp12
 70
     1
102
RTVSPropertyOp13
 70
     1
102
RTVSPropertyOp14
 70
     1
102
RTVSPropertyOp15
 70
     1
102
RTVSPropertyOp16
 70
     1
102
RTVSPropertyOp17
 70
     1
102
RTVSPropertyOp18
 70
     1
102
RTVSPropertyOp19
 70
     1
102
RTVSPropertyOp20
 70
     1
102
RTVSPropertyOp21
 70
     1
102
RTVSPropertyOp22
 70
     1
102
RTVSPropertyOp23
 70
     1
102
RTVSPropertyOp24
 70
     1
102
RTVSPropertyOp25
 70
     1
102
RTVSPropertyOp26
 70
     1
102
RTVSPropertyOp27
 70
     1
102
RTVSPropertyOp28
 70
     1
102
RTVSPropertyOp29
 70
     1
102
RTVSPropertyOp30
 70
     1
102
RTVSPropertyOp31
 70
     1
102
RTVSPropertyOp32
 70
     1
102
RTVSPropertyOp33
 70
     1
102
RTVSPropertyOp34
 70
     1
102
RTVSPropertyOp35
 70
     1
102
RTVSPropertyOp36
 70
     1
102
RTVSPropertyOp37
 70
     1
102
RTVSPropertyOp38
 70
     1
102
RTVSPropertyOp39
 70
     1
102
RTVSPropertyOp40
 70
     1
102
RTVSPropertyOp41
 70
     1
102
RTVSPropertyOp42
 70
     1
102
RTVSPropertyOp43
 70
     1
102
RTVSPropertyOp44
 70
     1
102
RTVSPropertyOp45
 70
     1
102
RTVSPropertyOp46
 70
     1
102
RTVSPropertyOp47
 70
     1
102
RTVSPropertyOp48
 70
     1
102
RTVSPropertyOp49
 70
     1
102
RTVSPropertyOp50
 70
     1
102
RTVSPropertyOp51
 70
     0
102
RTVSPropertyOp52
 70
     0
102
RTVSPropertyOp53
 70
     1
102
RTVSPropertyOp54
 70
     1
102
RTVSPropertyOp55
 70
     1
102
RTVSPropertyOp56
 70
     1
102
RTVSPropertyOp57
 70
     1
102
RTVSPost2010Prop28
280
     0
102
RTVSPost2010PropOp28
 70
     1
102
RTVSPost2010Prop29
280
     1
102
RTVSPost2010PropOp29
 70
     1
102
RTVSPost2010Prop30
280
     1
102
RTVSPost2010PropOp30
 70
     1
102
RTVSPost2010Prop31
280
     0
102
RTVSPost2010PropOp31
 70
     1
102
RTVSPost2010Prop32
280
     0
102
RTVSPost2010PropOp32
 70
     1
102
RTVSPost2010Prop33
280
     0
102
RTVSPost2010PropOp33
 70
     1
102
RTVSPost2010Prop34
280
     0
102
RTVSPost2010PropOp34
 70
     1
102
RTVSPost2010Prop35
280
     0
102
RTVSPost2010PropOp35
 70
     1
102
RTVSPost2010Prop36
280
     0
102
RTVSPost2010PropOp36
 70
     1
102
RTVSPost2010Prop37
 90
       50
102
RTVSPost2010PropOp37
 70
     1
102
RTVSPost2010Prop38
140
0.0
102
RTVSPost2010PropOp38
 70
     1
102
RTVSPost2010Prop39
140
1.0
102
RTVSPost2010PropOp39
 70
     1
102
RTVSPost2010Prop40
 90
        0
102
RTVSPost2010PropOp40
 70
     1
102
RTVSPost2010Prop41ColorIndex
 90
       18
102
RTVSPost2010Prop41ColorRGB
 90
        0
102
RTVSPost2010PropOp41
 70
     1
102
RTVSPost2010Prop42
 90
       50
102
RTVSPost2010PropOp42
 70
     1
102
RTVSPost2010Prop43
 90
        3
102
RTVSPost2010PropOp43
 70
     1
102
RTVSPost2010Prop44ColorIndex
 90
        5
102
RTVSPost2010Prop44ColorRGB
 90
      255
102
RTVSPost2010PropOp44
 70
     1
102
RTVSPost2010Prop45
280
     0
102
RTVSPost2010PropOp45
 70
     1
102
RTVSPost2010Prop46
 90
       50
102
RTVSPost2010PropOp46
 70
     1
102
RTVSPost2010Prop47
 90
       50
102
RTVSPost2010PropOp47
 70
     1
102
RTVSPost2010Prop48
 90
       50
102
RTVSPost2010PropOp48
 70
     1
102
RTVSPost2010Prop49
280
     0
102
RTVSPost2010PropOp49
 70
     1
102
RTVSPost2010Prop50
 90
       50
102
RTVSPost2010PropOp50
 70
     1
102
RTVSPost2010Prop51ColorIndex
 90
      256
102
RTVSPost2010Prop51ColorRGB
 90
-16777216
102
RTVSPost2010PropOp51
 70
     0
102
RTVSPost2010Prop52
140
1.0
102
RTVSPost2010PropOp52
 70
     0
102
RTVSPost2010Prop53
 90
        2
102
RTVSPost2010PropOp53
 70
     1
102
RTVSPost2010Prop54
  1
strokes_ogs.tif
102
RTVSPost2010PropOp54
 70
     1
102
RTVSPost2010Prop55
280
     0
102
RTVSPost2010PropOp55
 70
     1
102
RTVSPost2010Prop56
140
1.0
102
RTVSPost2010PropOp56
 70
     1
102
RTVSPost2010Prop57
140
1.0
102
RTVSPost2010PropOp57
 70
     1
  0
XRECORD
  5
375
102
{ACAD_REACTORS
330
374
102
}
330
374
100
AcDbXrecord
280
     1
102
RTVSPropertyOp0
 70
     0
102
RTVSPropertyOp1
 70
     0
102
RTVSPropertyOp2
 70
     0
102
RTVSPropertyOp3
 70
     0
102
RTVSPropertyOp4
 70
     0
102
RTVSPropertyOp5
 70
     0
102
RTVSPropertyOp6
 70
     0
102
RTVSPropertyOp7
 70
     0
102
RTVSPropertyOp8
 70
     0
102
RTVSPropertyOp9
 70
     0
102
RTVSPropertyOp10
 70
     0
102
RTVSPropertyOp11
 70
     0
102
RTVSPropertyOp12
 70
     0
102
RTVSPropertyOp13
 70
     0
102
RTVSPropertyOp14
 70
     2
102
RTVSPropertyOp15
 70
     0
102
RTVSPropertyOp16
 70
     0
102
RTVSPropertyOp17
 70
     0
102
RTVSPropertyOp18
 70
     0
102
RTVSPropertyOp19
 70
     0
102
RTVSPropertyOp20
 70
     0
102
RTVSPropertyOp21
 70
     0
102
RTVSPropertyOp22
 70
     0
102
RTVSPropertyOp23
 70
     0
102
RTVSPropertyOp24
 70
     0
102
RTVSPropertyOp25
 70
     0
102
RTVSPropertyOp26
 70
     0
102
RTVSPropertyOp27
 70
     0
102
RTVSPropertyOp28
 70
     0
102
RTVSPropertyOp29
 70
     0
102
RTVSPropertyOp30
 70
     0
102
RTVSPropertyOp31
 70
     0
102
RTVSPropertyOp32
 70
     0
102
RTVSPropertyOp33
 70
     0
102
RTVSPropertyOp34
 70
     0
102
RTVSPropertyOp35
 70
     0
102
RTVSPropertyOp36
 70
     0
102
RTVSPropertyOp37
 70
     0
102
RTVSPropertyOp38
 70
     0
102
RTVSPropertyOp39
 70
     0
102
RTVSPropertyOp40
 70
     0
102
RTVSPropertyOp41
 70
     0
102
RTVSPropertyOp42
 70
     0
102
RTVSPropertyOp43
 70
     0
102
RTVSPropertyOp44
 70
     0
102
RTVSPropertyOp45
 70
     0
102
RTVSPropertyOp46
 70
     0
102
RTVSPropertyOp47
 70
     0
102
RTVSPropertyOp48
 70
     0
102
RTVSPropertyOp49
 70
     0
102
RTVSPropertyOp50
 70
     0
102
RTVSPropertyOp51
 70
     0
102
RTVSPropertyOp52
 70
     0
102
RTVSPropertyOp53
 70
     0
102
RTVSPropertyOp54
 70
     0
102
RTVSPropertyOp55
 70
     0
102
RTVSPropertyOp56
 70
     0
102
RTVSPropertyOp57
 70
     0
102
RTVSPost2010Prop28
280
     0
102
RTVSPost2010PropOp28
 70
     0
102
RTVSPost2010Prop29
280
     1
102
RTVSPost2010PropOp29
 70
     0
102
RTVSPost2010Prop30
280
     1
102
RTVSPost2010PropOp30
 70
     0
102
RTVSPost2010Prop31
280
     0
102
RTVSPost2010PropOp31
 70
     0
102
RTVSPost2010Prop32
280
     0
102
RTVSPost2010PropOp32
 70
     0
102
RTVSPost2010Prop33
280
     0
102
RTVSPost2010PropOp33
 70
     0
102
RTVSPost2010Prop34
280
     0
102
RTVSPost2010PropOp34
 70
     0
102
RTVSPost2010Prop35
280
     0
102
RTVSPost2010PropOp35
 70
     0
102
RTVSPost2010Prop36
280
     0
102
RTVSPost2010PropOp36
 70
     0
102
RTVSPost2010Prop37
 90
       50
102
RTVSPost2010PropOp37
 70
     0
102
RTVSPost2010Prop38
140
0.0
102
RTVSPost2010PropOp38
 70
     0
102
RTVSPost2010Prop39
140
1.0
102
RTVSPost2010PropOp39
 70
     0
102
RTVSPost2010Prop40
 90
        0
102
RTVSPost2010PropOp40
 70
     0
102
RTVSPost2010Prop41ColorIndex
 90
       18
102
RTVSPost2010Prop41ColorRGB
 90
        0
102
RTVSPost2010PropOp41
 70
     0
102
RTVSPost2010Prop42
 90
       50
102
RTVSPost2010PropOp42
 70
     0
102
RTVSPost2010Prop43
 90
        3
102
RTVSPost2010PropOp43
 70
     0
102
RTVSPost2010Prop44ColorIndex
 90
        5
102
RTVSPost2010Prop44ColorRGB
 90
      255
102
RTVSPost2010PropOp44
 70
     0
102
RTVSPost2010Prop45
280
     0
102
RTVSPost2010PropOp45
 70
     0
102
RTVSPost2010Prop46
 90
       50
102
RTVSPost2010PropOp46
 70
     0
102
RTVSPost2010Prop47
 90
       50
102
RTVSPost2010PropOp47
 70
     0
102
RTVSPost2010Prop48
 90
       50
102
RTVSPost2010PropOp48
 70
     0
102
RTVSPost2010Prop49
280
     0
102
RTVSPost2010PropOp49
 70
     0
102
RTVSPost2010Prop50
 90
       50
102
RTVSPost2010PropOp50
 70
     0
102
RTVSPost2010Prop51ColorIndex
 90
      256
102
RTVSPost2010Prop51ColorRGB
 90
-16777216
102
RTVSPost2010PropOp51
 70
     0
102
RTVSPost2010Prop52
140
1.0
102
RTVSPost2010PropOp52
 70
     0
102
RTVSPost2010Prop53
 90
        2
102
RTVSPost2010PropOp53
 70
     0
102
RTVSPost2010Prop54
  1
strokes_ogs.tif
102
RTVSPost2010PropOp54
 70
     0
102
RTVSPost2010Prop55
280
     0
102
RTVSPost2010PropOp55
 70
     0
102
RTVSPost2010Prop56
140
1.0
102
RTVSPost2010PropOp56
 70
     0
102
RTVSPost2010Prop57
140
1.0
102
RTVSPost2010PropOp57
 70
     0
  0
XRECORD
  5
36F
102
{ACAD_REACTORS
330
36E
102
}
330
36E
100
AcDbXrecord
280
     1
102
RTVSPropertyOp0
 70
     1
102
RTVSPropertyOp1
 70
     1
102
RTVSPropertyOp2
 70
     1
102
RTVSPropertyOp3
 70
     1
102
RTVSPropertyOp4
 70
     1
102
RTVSPropertyOp5
 70
     1
102
RTVSPropertyOp6
 70
     1
102
RTVSPropertyOp7
 70
     1
102
RTVSPropertyOp8
 70
     1
102
RTVSPropertyOp9
 70
     1
102
RTVSPropertyOp10
 70
     1
102
RTVSPropertyOp11
 70
     1
102
RTVSPropertyOp12
 70
     1
102
RTVSPropertyOp13
 70
     1
102
RTVSPropertyOp14
 70
     1
102
RTVSPropertyOp15
 70
     1
102
RTVSPropertyOp16
 70
     1
102
RTVSPropertyOp17
 70
     1
102
RTVSPropertyOp18
 70
     1
102
RTVSPropertyOp19
 70
     1
102
RTVSPropertyOp20
 70
     1
102
RTVSPropertyOp21
 70
     1
102
RTVSPropertyOp22
 70
     1
102
RTVSPropertyOp23
 70
     1
102
RTVSPropertyOp24
 70
     1
102
RTVSPropertyOp25
 70
     1
102
RTVSPropertyOp26
 70
     1
102
RTVSPropertyOp27
 70
     1
102
RTVSPropertyOp28
 70
     1
102
RTVSPropertyOp29
 70
     1
102
RTVSPropertyOp30
 70
     1
102
RTVSPropertyOp31
 70
     1
102
RTVSPropertyOp32
 70
     1
102
RTVSPropertyOp33
 70
     1
102
RTVSPropertyOp34
 70
     1
102
RTVSPropertyOp35
 70
     1
102
RTVSPropertyOp36
 70
     1
102
RTVSPropertyOp37
 70
     1
102
RTVSPropertyOp38
 70
     1
102
RTVSPropertyOp39
 70
     1
102
RTVSPropertyOp40
 70
     1
102
RTVSPropertyOp41
 70
     1
102
RTVSPropertyOp42
 70
     1
102
RTVSPropertyOp43
 70
     1
102
RTVSPropertyOp44
 70
     1
102
RTVSPropertyOp45
 70
     1
102
RTVSPropertyOp46
 70
     1
102
RTVSPropertyOp47
 70
     1
102
RTVSPropertyOp48
 70
     1
102
RTVSPropertyOp49
 70
     1
102
RTVSPropertyOp50
 70
     1
102
RTVSPropertyOp51
 70
     0
102
RTVSPropertyOp52
 70
     0
102
RTVSPropertyOp53
 70
     1
102
RTVSPropertyOp54
 70
     1
102
RTVSPropertyOp55
 70
     1
102
RTVSPropertyOp56
 70
     1
102
RTVSPropertyOp57
 70
     1
102
RTVSPost2010Prop28
280
     0
102
RTVSPost2010PropOp28
 70
     1
102
RTVSPost2010Prop29
280
     1
102
RTVSPost2010PropOp29
 70
     1
102
RTVSPost2010Prop30
280
     1
102
RTVSPost2010PropOp30
 70
     1
102
RTVSPost2010Prop31
280
     0
102
RTVSPost2010PropOp31
 70
     1
102
RTVSPost2010Prop32
280
     0
102
RTVSPost2010PropOp32
 70
     1
102
RTVSPost2010Prop33
280
     0
102
RTVSPost2010PropOp33
 70
     1
102
RTVSPost2010Prop34
280
     0
102
RTVSPost2010PropOp34
 70
     1
102
RTVSPost2010Prop35
280
     0
102
RTVSPost2010PropOp35
 70
     1
102
RTVSPost2010Prop36
280
     0
102
RTVSPost2010PropOp36
 70
     1
102
RTVSPost2010Prop37
 90
       50
102
RTVSPost2010PropOp37
 70
     1
102
RTVSPost2010Prop38
140
0.0
102
RTVSPost2010PropOp38
 70
     1
102
RTVSPost2010Prop39
140
1.0
102
RTVSPost2010PropOp39
 70
     1
102
RTVSPost2010Prop40
 90
        0
102
RTVSPost2010PropOp40
 70
     1
102
RTVSPost2010Prop41ColorIndex
 90
       18
102
RTVSPost2010Prop41ColorRGB
 90
        0
102
RTVSPost2010PropOp41
 70
     1
102
RTVSPost2010Prop42
 90
       50
102
RTVSPost2010PropOp42
 70
     1
102
RTVSPost2010Prop43
 90
        3
102
RTVSPost2010PropOp43
 70
     1
102
RTVSPost2010Prop44ColorIndex
 90
        5
102
RTVSPost2010Prop44ColorRGB
 90
      255
102
RTVSPost2010PropOp44
 70
     1
102
RTVSPost2010Prop45
280
     0
102
RTVSPost2010PropOp45
 70
     1
102
RTVSPost2010Prop46
 90
       50
102
RTVSPost2010PropOp46
 70
     1
102
RTVSPost2010Prop47
 90
       50
102
RTVSPost2010PropOp47
 70
     1
102
RTVSPost2010Prop48
 90
       50
102
RTVSPost2010PropOp48
 70
     1
102
RTVSPost2010Prop49
280
     0
102
RTVSPost2010PropOp49
 70
     1
102
RTVSPost2010Prop50
 90
       50
102
RTVSPost2010PropOp50
 70
     1
102
RTVSPost2010Prop51ColorIndex
 90
      256
102
RTVSPost2010Prop51ColorRGB
 90
-16777216
102
RTVSPost2010PropOp51
 70
     0
102
RTVSPost2010Prop52
140
1.0
102
RTVSPost2010PropOp52
 70
     0
102
RTVSPost2010Prop53
 90
        2
102
RTVSPost2010PropOp53
 70
     1
102
RTVSPost2010Prop54
  1
strokes_ogs.tif
102
RTVSPost2010PropOp54
 70
     1
102
RTVSPost2010Prop55
280
     0
102
RTVSPost2010PropOp55
 70
     1
102
RTVSPost2010Prop56
140
1.0
102
RTVSPost2010PropOp56
 70
     1
102
RTVSPost2010Prop57
140
1.0
102
RTVSPost2010PropOp57
 70
     1
  0
XRECORD
  5
377
102
{ACAD_REACTORS
330
376
102
}
330
376
100
AcDbXrecord
280
     1
102
RTVSPropertyOp0
 70
     0
102
RTVSPropertyOp1
 70
     0
102
RTVSPropertyOp2
 70
     0
102
RTVSPropertyOp3
 70
     0
102
RTVSPropertyOp4
 70
     0
102
RTVSPropertyOp5
 70
     0
102
RTVSPropertyOp6
 70
     0
102
RTVSPropertyOp7
 70
     0
102
RTVSPropertyOp8
 70
     0
102
RTVSPropertyOp9
 70
     0
102
RTVSPropertyOp10
 70
     0
102
RTVSPropertyOp11
 70
     0
102
RTVSPropertyOp12
 70
     0
102
RTVSPropertyOp13
 70
     0
102
RTVSPropertyOp14
 70
     2
102
RTVSPropertyOp15
 70
     0
102
RTVSPropertyOp16
 70
     0
102
RTVSPropertyOp17
 70
     0
102
RTVSPropertyOp18
 70
     0
102
RTVSPropertyOp19
 70
     0
102
RTVSPropertyOp20
 70
     0
102
RTVSPropertyOp21
 70
     0
102
RTVSPropertyOp22
 70
     0
102
RTVSPropertyOp23
 70
     0
102
RTVSPropertyOp24
 70
     0
102
RTVSPropertyOp25
 70
     0
102
RTVSPropertyOp26
 70
     0
102
RTVSPropertyOp27
 70
     0
102
RTVSPropertyOp28
 70
     0
102
RTVSPropertyOp29
 70
     0
102
RTVSPropertyOp30
 70
     0
102
RTVSPropertyOp31
 70
     0
102
RTVSPropertyOp32
 70
     0
102
RTVSPropertyOp33
 70
     0
102
RTVSPropertyOp34
 70
     0
102
RTVSPropertyOp35
 70
     0
102
RTVSPropertyOp36
 70
     0
102
RTVSPropertyOp37
 70
     0
102
RTVSPropertyOp38
 70
     0
102
RTVSPropertyOp39
 70
     0
102
RTVSPropertyOp40
 70
     0
102
RTVSPropertyOp41
 70
     0
102
RTVSPropertyOp42
 70
     0
102
RTVSPropertyOp43
 70
     0
102
RTVSPropertyOp44
 70
     0
102
RTVSPropertyOp45
 70
     0
102
RTVSPropertyOp46
 70
     0
102
RTVSPropertyOp47
 70
     0
102
RTVSPropertyOp48
 70
     0
102
RTVSPropertyOp49
 70
     0
102
RTVSPropertyOp50
 70
     0
102
RTVSPropertyOp51
 70
     0
102
RTVSPropertyOp52
 70
     0
102
RTVSPropertyOp53
 70
     0
102
RTVSPropertyOp54
 70
     0
102
RTVSPropertyOp55
 70
     0
102
RTVSPropertyOp56
 70
     0
102
RTVSPropertyOp57
 70
     0
102
RTVSPost2010Prop28
280
     0
102
RTVSPost2010PropOp28
 70
     0
102
RTVSPost2010Prop29
280
     1
102
RTVSPost2010PropOp29
 70
     0
102
RTVSPost2010Prop30
280
     1
102
RTVSPost2010PropOp30
 70
     0
102
RTVSPost2010Prop31
280
     0
102
RTVSPost2010PropOp31
 70
     0
102
RTVSPost2010Prop32
280
     0
102
RTVSPost2010PropOp32
 70
     0
102
RTVSPost2010Prop33
280
     0
102
RTVSPost2010PropOp33
 70
     0
102
RTVSPost2010Prop34
280
     0
102
RTVSPost2010PropOp34
 70
     0
102
RTVSPost2010Prop35
280
     0
102
RTVSPost2010PropOp35
 70
     0
102
RTVSPost2010Prop36
280
     0
102
RTVSPost2010PropOp36
 70
     0
102
RTVSPost2010Prop37
 90
       50
102
RTVSPost2010PropOp37
 70
     0
102
RTVSPost2010Prop38
140
0.0
102
RTVSPost2010PropOp38
 70
     0
102
RTVSPost2010Prop39
140
1.0
102
RTVSPost2010PropOp39
 70
     0
102
RTVSPost2010Prop40
 90
        0
102
RTVSPost2010PropOp40
 70
     0
102
RTVSPost2010Prop41ColorIndex
 90
       18
102
RTVSPost2010Prop41ColorRGB
 90
        0
102
RTVSPost2010PropOp41
 70
     0
102
RTVSPost2010Prop42
 90
       50
102
RTVSPost2010PropOp42
 70
     0
102
RTVSPost2010Prop43
 90
        3
102
RTVSPost2010PropOp43
 70
     0
102
RTVSPost2010Prop44ColorIndex
 90
        5
102
RTVSPost2010Prop44ColorRGB
 90
      255
102
RTVSPost2010PropOp44
 70
     0
102
RTVSPost2010Prop45
280
     0
102
RTVSPost2010PropOp45
 70
     0
102
RTVSPost2010Prop46
 90
       50
102
RTVSPost2010PropOp46
 70
     0
102
RTVSPost2010Prop47
 90
       50
102
RTVSPost2010PropOp47
 70
     0
102
RTVSPost2010Prop48
 90
       50
102
RTVSPost2010PropOp48
 70
     0
102
RTVSPost2010Prop49
280
     0
102
RTVSPost2010PropOp49
 70
     0
102
RTVSPost2010Prop50
 90
       50
102
RTVSPost2010PropOp50
 70
     0
102
RTVSPost2010Prop51ColorIndex
 90
      256
102
RTVSPost2010Prop51ColorRGB
 90
-16777216
102
RTVSPost2010PropOp51
 70
     0
102
RTVSPost2010Prop52
140
1.0
102
RTVSPost2010PropOp52
 70
     0
102
RTVSPost2010Prop53
 90
        2
102
RTVSPost2010PropOp53
 70
     0
102
RTVSPost2010Prop54
  1
strokes_ogs.tif
102
RTVSPost2010PropOp54
 70
     0
102
RTVSPost2010Prop55
280
     0
102
RTVSPost2010PropOp55
 70
     0
102
RTVSPost2010Prop56
140
1.0
102
RTVSPost2010PropOp56
 70
     0
102
RTVSPost2010Prop57
140
1.0
102
RTVSPost2010PropOp57
 70
     0
  0
XRECORD
  5
365
102
{ACAD_REACTORS
330
364
102
}
330
364
100
AcDbXrecord
280
     1
102
RTVSPropertyOp0
 70
     1
102
RTVSPropertyOp1
 70
     1
102
RTVSPropertyOp2
 70
     1
102
RTVSPropertyOp3
 70
     1
102
RTVSPropertyOp4
 70
     1
102
RTVSPropertyOp5
 70
     1
102
RTVSPropertyOp6
 70
     1
102
RTVSPropertyOp7
 70
     1
102
RTVSPropertyOp8
 70
     1
102
RTVSPropertyOp9
 70
     1
102
RTVSPropertyOp10
 70
     1
102
RTVSPropertyOp11
 70
     1
102
RTVSPropertyOp12
 70
     1
102
RTVSPropertyOp13
 70
     1
102
RTVSPropertyOp14
 70
     1
102
RTVSPropertyOp15
 70
     1
102
RTVSPropertyOp16
 70
     1
102
RTVSPropertyOp17
 70
     1
102
RTVSPropertyOp18
 70
     1
102
RTVSPropertyOp19
 70
     1
102
RTVSPropertyOp20
 70
     1
102
RTVSPropertyOp21
 70
     1
102
RTVSPropertyOp22
 70
     1
102
RTVSPropertyOp23
 70
     1
102
RTVSPropertyOp24
 70
     1
102
RTVSPropertyOp25
 70
     1
102
RTVSPropertyOp26
 70
     1
102
RTVSPropertyOp27
 70
     1
102
RTVSPropertyOp28
 70
     1
102
RTVSPropertyOp29
 70
     1
102
RTVSPropertyOp30
 70
     1
102
RTVSPropertyOp31
 70
     1
102
RTVSPropertyOp32
 70
     1
102
RTVSPropertyOp33
 70
     1
102
RTVSPropertyOp34
 70
     1
102
RTVSPropertyOp35
 70
     1
102
RTVSPropertyOp36
 70
     1
102
RTVSPropertyOp37
 70
     1
102
RTVSPropertyOp38
 70
     1
102
RTVSPropertyOp39
 70
     1
102
RTVSPropertyOp40
 70
     1
102
RTVSPropertyOp41
 70
     1
102
RTVSPropertyOp42
 70
     1
102
RTVSPropertyOp43
 70
     1
102
RTVSPropertyOp44
 70
     1
102
RTVSPropertyOp45
 70
     1
102
RTVSPropertyOp46
 70
     1
102
RTVSPropertyOp47
 70
     1
102
RTVSPropertyOp48
 70
     1
102
RTVSPropertyOp49
 70
     1
102
RTVSPropertyOp50
 70
     1
102
RTVSPropertyOp51
 70
     0
102
RTVSPropertyOp52
 70
     0
102
RTVSPropertyOp53
 70
     1
102
RTVSPropertyOp54
 70
     1
102
RTVSPropertyOp55
 70
     1
102
RTVSPropertyOp56
 70
     1
102
RTVSPropertyOp57
 70
     1
102
RTVSPost2010Prop28
280
     0
102
RTVSPost2010PropOp28
 70
     1
102
RTVSPost2010Prop29
280
     1
102
RTVSPost2010PropOp29
 70
     1
102
RTVSPost2010Prop30
280
     1
102
RTVSPost2010PropOp30
 70
     1
102
RTVSPost2010Prop31
280
     0
102
RTVSPost2010PropOp31
 70
     1
102
RTVSPost2010Prop32
280
     0
102
RTVSPost2010PropOp32
 70
     1
102
RTVSPost2010Prop33
280
     0
102
RTVSPost2010PropOp33
 70
     1
102
RTVSPost2010Prop34
280
     0
102
RTVSPost2010PropOp34
 70
     1
102
RTVSPost2010Prop35
280
     0
102
RTVSPost2010PropOp35
 70
     1
102
RTVSPost2010Prop36
280
     0
102
RTVSPost2010PropOp36
 70
     1
102
RTVSPost2010Prop37
 90
       50
102
RTVSPost2010PropOp37
 70
     1
102
RTVSPost2010Prop38
140
0.0
102
RTVSPost2010PropOp38
 70
     1
102
RTVSPost2010Prop39
140
1.0
102
RTVSPost2010PropOp39
 70
     1
102
RTVSPost2010Prop40
 90
        0
102
RTVSPost2010PropOp40
 70
     1
102
RTVSPost2010Prop41ColorIndex
 90
       18
102
RTVSPost2010Prop41ColorRGB
 90
        0
102
RTVSPost2010PropOp41
 70
     1
102
RTVSPost2010Prop42
 90
       50
102
RTVSPost2010PropOp42
 70
     1
102
RTVSPost2010Prop43
 90
        3
102
RTVSPost2010PropOp43
 70
     1
102
RTVSPost2010Prop44ColorIndex
 90
        5
102
RTVSPost2010Prop44ColorRGB
 90
      255
102
RTVSPost2010PropOp44
 70
     1
102
RTVSPost2010Prop45
280
     0
102
RTVSPost2010PropOp45
 70
     1
102
RTVSPost2010Prop46
 90
       50
102
RTVSPost2010PropOp46
 70
     1
102
RTVSPost2010Prop47
 90
       50
102
RTVSPost2010PropOp47
 70
     1
102
RTVSPost2010Prop48
 90
       50
102
RTVSPost2010PropOp48
 70
     1
102
RTVSPost2010Prop49
280
     0
102
RTVSPost2010PropOp49
 70
     1
102
RTVSPost2010Prop50
 90
       50
102
RTVSPost2010PropOp50
 70
     1
102
RTVSPost2010Prop51ColorIndex
 90
      256
102
RTVSPost2010Prop51ColorRGB
 90
-16777216
102
RTVSPost2010PropOp51
 70
     0
102
RTVSPost2010Prop52
140
1.0
102
RTVSPost2010PropOp52
 70
     0
102
RTVSPost2010Prop53
 90
        2
102
RTVSPost2010PropOp53
 70
     1
102
RTVSPost2010Prop54
  1
strokes_ogs.tif
102
RTVSPost2010PropOp54
 70
     1
102
RTVSPost2010Prop55
280
     0
102
RTVSPost2010PropOp55
 70
     1
102
RTVSPost2010Prop56
140
1.0
102
RTVSPost2010PropOp56
 70
     1
102
RTVSPost2010Prop57
140
1.0
102
RTVSPost2010PropOp57
 70
     1
  0
XRECORD
  5
383
102
{ACAD_REACTORS
330
382
102
}
330
382
100
AcDbXrecord
280
     1
102
RTVSPropertyOp0
 70
     1
102
RTVSPropertyOp1
 70
     1
102
RTVSPropertyOp2
 70
     1
102
RTVSPropertyOp3
 70
     1
102
RTVSPropertyOp4
 70
     1
102
RTVSPropertyOp5
 70
     1
102
RTVSPropertyOp6
 70
     1
102
RTVSPropertyOp7
 70
     1
102
RTVSPropertyOp8
 70
     1
102
RTVSPropertyOp9
 70
     1
102
RTVSPropertyOp10
 70
     1
102
RTVSPropertyOp11
 70
     1
102
RTVSPropertyOp12
 70
     1
102
RTVSPropertyOp13
 70
     1
102
RTVSPropertyOp14
 70
     1
102
RTVSPropertyOp15
 70
     1
102
RTVSPropertyOp16
 70
     1
102
RTVSPropertyOp17
 70
     1
102
RTVSPropertyOp18
 70
     1
102
RTVSPropertyOp19
 70
     1
102
RTVSPropertyOp20
 70
     1
102
RTVSPropertyOp21
 70
     1
102
RTVSPropertyOp22
 70
     1
102
RTVSPropertyOp23
 70
     1
102
RTVSPropertyOp24
 70
     1
102
RTVSPropertyOp25
 70
     1
102
RTVSPropertyOp26
 70
     1
102
RTVSPropertyOp27
 70
     1
102
RTVSPropertyOp28
 70
     1
102
RTVSPropertyOp29
 70
     1
102
RTVSPropertyOp30
 70
     1
102
RTVSPropertyOp31
 70
     1
102
RTVSPropertyOp32
 70
     1
102
RTVSPropertyOp33
 70
     1
102
RTVSPropertyOp34
 70
     1
102
RTVSPropertyOp35
 70
     1
102
RTVSPropertyOp36
 70
     1
102
RTVSPropertyOp37
 70
     1
102
RTVSPropertyOp38
 70
     1
102
RTVSPropertyOp39
 70
     1
102
RTVSPropertyOp40
 70
     1
102
RTVSPropertyOp41
 70
     1
102
RTVSPropertyOp42
 70
     1
102
RTVSPropertyOp43
 70
     1
102
RTVSPropertyOp44
 70
     1
102
RTVSPropertyOp45
 70
     1
102
RTVSPropertyOp46
 70
     1
102
RTVSPropertyOp47
 70
     1
102
RTVSPropertyOp48
 70
     1
102
RTVSPropertyOp49
 70
     1
102
RTVSPropertyOp50
 70
     1
102
RTVSPropertyOp51
 70
     0
102
RTVSPropertyOp52
 70
     0
102
RTVSPropertyOp53
 70
     1
102
RTVSPropertyOp54
 70
     1
102
RTVSPropertyOp55
 70
     1
102
RTVSPropertyOp56
 70
     1
102
RTVSPropertyOp57
 70
     1
102
RTVSPost2010Prop28
280
     0
102
RTVSPost2010PropOp28
 70
     1
102
RTVSPost2010Prop29
280
     1
102
RTVSPost2010PropOp29
 70
     1
102
RTVSPost2010Prop30
280
     1
102
RTVSPost2010PropOp30
 70
     1
102
RTVSPost2010Prop31
280
     0
102
RTVSPost2010PropOp31
 70
     1
102
RTVSPost2010Prop32
280
     0
102
RTVSPost2010PropOp32
 70
     1
102
RTVSPost2010Prop33
280
     0
102
RTVSPost2010PropOp33
 70
     1
102
RTVSPost2010Prop34
280
     0
102
RTVSPost2010PropOp34
 70
     1
102
RTVSPost2010Prop35
280
     0
102
RTVSPost2010PropOp35
 70
     1
102
RTVSPost2010Prop36
280
     0
102
RTVSPost2010PropOp36
 70
     1
102
RTVSPost2010Prop37
 90
       50
102
RTVSPost2010PropOp37
 70
     1
102
RTVSPost2010Prop38
140
0.0
102
RTVSPost2010PropOp38
 70
     1
102
RTVSPost2010Prop39
140
1.0
102
RTVSPost2010PropOp39
 70
     1
102
RTVSPost2010Prop40
 90
        0
102
RTVSPost2010PropOp40
 70
     1
102
RTVSPost2010Prop41ColorIndex
 90
       18
102
RTVSPost2010Prop41ColorRGB
 90
        0
102
RTVSPost2010PropOp41
 70
     1
102
RTVSPost2010Prop42
 90
       50
102
RTVSPost2010PropOp42
 70
     1
102
RTVSPost2010Prop43
 90
        3
102
RTVSPost2010PropOp43
 70
     1
102
RTVSPost2010Prop44ColorIndex
 90
        5
102
RTVSPost2010Prop44ColorRGB
 90
      255
102
RTVSPost2010PropOp44
 70
     1
102
RTVSPost2010Prop45
280
     0
102
RTVSPost2010PropOp45
 70
     1
102
RTVSPost2010Prop46
 90
       50
102
RTVSPost2010PropOp46
 70
     1
102
RTVSPost2010Prop47
 90
       50
102
RTVSPost2010PropOp47
 70
     1
102
RTVSPost2010Prop48
 90
       50
102
RTVSPost2010PropOp48
 70
     1
102
RTVSPost2010Prop49
280
     0
102
RTVSPost2010PropOp49
 70
     1
102
RTVSPost2010Prop50
 90
       50
102
RTVSPost2010PropOp50
 70
     1
102
RTVSPost2010Prop51ColorIndex
 90
      256
102
RTVSPost2010Prop51ColorRGB
 90
-16777216
102
RTVSPost2010PropOp51
 70
     0
102
RTVSPost2010Prop52
140
1.0
102
RTVSPost2010PropOp52
 70
     0
102
RTVSPost2010Prop53
 90
        2
102
RTVSPost2010PropOp53
 70
     1
102
RTVSPost2010Prop54
  1
strokes_ogs.tif
102
RTVSPost2010PropOp54
 70
     1
102
RTVSPost2010Prop55
280
     0
102
RTVSPost2010PropOp55
 70
     1
102
RTVSPost2010Prop56
140
1.0
102
RTVSPost2010PropOp56
 70
     1
102
RTVSPost2010Prop57
140
1.0
102
RTVSPost2010PropOp57
 70
     1
  0
XRECORD
  5
381
102
{ACAD_REACTORS
330
380
102
}
330
380
100
AcDbXrecord
280
     1
102
RTVSPropertyOp0
 70
     1
102
RTVSPropertyOp1
 70
     1
102
RTVSPropertyOp2
 70
     1
102
RTVSPropertyOp3
 70
     1
102
RTVSPropertyOp4
 70
     1
102
RTVSPropertyOp5
 70
     1
102
RTVSPropertyOp6
 70
     1
102
RTVSPropertyOp7
 70
     1
102
RTVSPropertyOp8
 70
     1
102
RTVSPropertyOp9
 70
     1
102
RTVSPropertyOp10
 70
     1
102
RTVSPropertyOp11
 70
     1
102
RTVSPropertyOp12
 70
     1
102
RTVSPropertyOp13
 70
     1
102
RTVSPropertyOp14
 70
     1
102
RTVSPropertyOp15
 70
     1
102
RTVSPropertyOp16
 70
     1
102
RTVSPropertyOp17
 70
     1
102
RTVSPropertyOp18
 70
     1
102
RTVSPropertyOp19
 70
     1
102
RTVSPropertyOp20
 70
     1
102
RTVSPropertyOp21
 70
     1
102
RTVSPropertyOp22
 70
     1
102
RTVSPropertyOp23
 70
     1
102
RTVSPropertyOp24
 70
     1
102
RTVSPropertyOp25
 70
     1
102
RTVSPropertyOp26
 70
     1
102
RTVSPropertyOp27
 70
     1
102
RTVSPropertyOp28
 70
     1
102
RTVSPropertyOp29
 70
     1
102
RTVSPropertyOp30
 70
     1
102
RTVSPropertyOp31
 70
     1
102
RTVSPropertyOp32
 70
     1
102
RTVSPropertyOp33
 70
     1
102
RTVSPropertyOp34
 70
     1
102
RTVSPropertyOp35
 70
     1
102
RTVSPropertyOp36
 70
     1
102
RTVSPropertyOp37
 70
     1
102
RTVSPropertyOp38
 70
     1
102
RTVSPropertyOp39
 70
     1
102
RTVSPropertyOp40
 70
     1
102
RTVSPropertyOp41
 70
     1
102
RTVSPropertyOp42
 70
     1
102
RTVSPropertyOp43
 70
     1
102
RTVSPropertyOp44
 70
     1
102
RTVSPropertyOp45
 70
     1
102
RTVSPropertyOp46
 70
     1
102
RTVSPropertyOp47
 70
     1
102
RTVSPropertyOp48
 70
     1
102
RTVSPropertyOp49
 70
     1
102
RTVSPropertyOp50
 70
     1
102
RTVSPropertyOp51
 70
     0
102
RTVSPropertyOp52
 70
     0
102
RTVSPropertyOp53
 70
     1
102
RTVSPropertyOp54
 70
     1
102
RTVSPropertyOp55
 70
     1
102
RTVSPropertyOp56
 70
     1
102
RTVSPropertyOp57
 70
     1
102
RTVSPost2010Prop28
280
     0
102
RTVSPost2010PropOp28
 70
     1
102
RTVSPost2010Prop29
280
     1
102
RTVSPost2010PropOp29
 70
     1
102
RTVSPost2010Prop30
280
     1
102
RTVSPost2010PropOp30
 70
     1
102
RTVSPost2010Prop31
280
     0
102
RTVSPost2010PropOp31
 70
     1
102
RTVSPost2010Prop32
280
     0
102
RTVSPost2010PropOp32
 70
     1
102
RTVSPost2010Prop33
280
     0
102
RTVSPost2010PropOp33
 70
     1
102
RTVSPost2010Prop34
280
     0
102
RTVSPost2010PropOp34
 70
     1
102
RTVSPost2010Prop35
280
     0
102
RTVSPost2010PropOp35
 70
     1
102
RTVSPost2010Prop36
280
     0
102
RTVSPost2010PropOp36
 70
     1
102
RTVSPost2010Prop37
 90
       50
102
RTVSPost2010PropOp37
 70
     1
102
RTVSPost2010Prop38
140
0.0
102
RTVSPost2010PropOp38
 70
     1
102
RTVSPost2010Prop39
140
1.0
102
RTVSPost2010PropOp39
 70
     1
102
RTVSPost2010Prop40
 90
        0
102
RTVSPost2010PropOp40
 70
     1
102
RTVSPost2010Prop41ColorIndex
 90
       18
102
RTVSPost2010Prop41ColorRGB
 90
        0
102
RTVSPost2010PropOp41
 70
     1
102
RTVSPost2010Prop42
 90
       50
102
RTVSPost2010PropOp42
 70
     1
102
RTVSPost2010Prop43
 90
        3
102
RTVSPost2010PropOp43
 70
     1
102
RTVSPost2010Prop44ColorIndex
 90
        5
102
RTVSPost2010Prop44ColorRGB
 90
      255
102
RTVSPost2010PropOp44
 70
     1
102
RTVSPost2010Prop45
280
     0
102
RTVSPost2010PropOp45
 70
     1
102
RTVSPost2010Prop46
 90
       50
102
RTVSPost2010PropOp46
 70
     1
102
RTVSPost2010Prop47
 90
       50
102
RTVSPost2010PropOp47
 70
     1
102
RTVSPost2010Prop48
 90
       50
102
RTVSPost2010PropOp48
 70
     1
102
RTVSPost2010Prop49
280
     0
102
RTVSPost2010PropOp49
 70
     1
102
RTVSPost2010Prop50
 90
       50
102
RTVSPost2010PropOp50
 70
     1
102
RTVSPost2010Prop51ColorIndex
 90
      256
102
RTVSPost2010Prop51ColorRGB
 90
-16777216
102
RTVSPost2010PropOp51
 70
     0
102
RTVSPost2010Prop52
140
1.0
102
RTVSPost2010PropOp52
 70
     0
102
RTVSPost2010Prop53
 90
        2
102
RTVSPost2010PropOp53
 70
     1
102
RTVSPost2010Prop54
  1
strokes_ogs.tif
102
RTVSPost2010PropOp54
 70
     1
102
RTVSPost2010Prop55
280
     0
102
RTVSPost2010PropOp55
 70
     1
102
RTVSPost2010Prop56
140
1.0
102
RTVSPost2010PropOp56
 70
     1
102
RTVSPost2010Prop57
140
1.0
102
RTVSPost2010PropOp57
 70
     1
  0
XRECORD
  5
37B
102
{ACAD_REACTORS
330
37A
102
}
330
37A
100
AcDbXrecord
280
     1
102
RTVSPropertyOp0
 70
     1
102
RTVSPropertyOp1
 70
     1
102
RTVSPropertyOp2
 70
     1
102
RTVSPropertyOp3
 70
     1
102
RTVSPropertyOp4
 70
     1
102
RTVSPropertyOp5
 70
     1
102
RTVSPropertyOp6
 70
     1
102
RTVSPropertyOp7
 70
     1
102
RTVSPropertyOp8
 70
     1
102
RTVSPropertyOp9
 70
     1
102
RTVSPropertyOp10
 70
     1
102
RTVSPropertyOp11
 70
     1
102
RTVSPropertyOp12
 70
     1
102
RTVSPropertyOp13
 70
     1
102
RTVSPropertyOp14
 70
     1
102
RTVSPropertyOp15
 70
     1
102
RTVSPropertyOp16
 70
     1
102
RTVSPropertyOp17
 70
     1
102
RTVSPropertyOp18
 70
     1
102
RTVSPropertyOp19
 70
     1
102
RTVSPropertyOp20
 70
     1
102
RTVSPropertyOp21
 70
     1
102
RTVSPropertyOp22
 70
     1
102
RTVSPropertyOp23
 70
     1
102
RTVSPropertyOp24
 70
     1
102
RTVSPropertyOp25
 70
     1
102
RTVSPropertyOp26
 70
     1
102
RTVSPropertyOp27
 70
     1
102
RTVSPropertyOp28
 70
     1
102
RTVSPropertyOp29
 70
     1
102
RTVSPropertyOp30
 70
     1
102
RTVSPropertyOp31
 70
     1
102
RTVSPropertyOp32
 70
     1
102
RTVSPropertyOp33
 70
     1
102
RTVSPropertyOp34
 70
     1
102
RTVSPropertyOp35
 70
     1
102
RTVSPropertyOp36
 70
     1
102
RTVSPropertyOp37
 70
     1
102
RTVSPropertyOp38
 70
     1
102
RTVSPropertyOp39
 70
     1
102
RTVSPropertyOp40
 70
     1
102
RTVSPropertyOp41
 70
     1
102
RTVSPropertyOp42
 70
     1
102
RTVSPropertyOp43
 70
     1
102
RTVSPropertyOp44
 70
     1
102
RTVSPropertyOp45
 70
     1
102
RTVSPropertyOp46
 70
     1
102
RTVSPropertyOp47
 70
     1
102
RTVSPropertyOp48
 70
     1
102
RTVSPropertyOp49
 70
     1
102
RTVSPropertyOp50
 70
     1
102
RTVSPropertyOp51
 70
     0
102
RTVSPropertyOp52
 70
     0
102
RTVSPropertyOp53
 70
     1
102
RTVSPropertyOp54
 70
     1
102
RTVSPropertyOp55
 70
     1
102
RTVSPropertyOp56
 70
     1
102
RTVSPropertyOp57
 70
     1
102
RTVSPost2010Prop28
280
     0
102
RTVSPost2010PropOp28
 70
     1
102
RTVSPost2010Prop29
280
     1
102
RTVSPost2010PropOp29
 70
     1
102
RTVSPost2010Prop30
280
     1
102
RTVSPost2010PropOp30
 70
     1
102
RTVSPost2010Prop31
280
     0
102
RTVSPost2010PropOp31
 70
     1
102
RTVSPost2010Prop32
280
     0
102
RTVSPost2010PropOp32
 70
     1
102
RTVSPost2010Prop33
280
     0
102
RTVSPost2010PropOp33
 70
     1
102
RTVSPost2010Prop34
280
     0
102
RTVSPost2010PropOp34
 70
     1
102
RTVSPost2010Prop35
280
     0
102
RTVSPost2010PropOp35
 70
     1
102
RTVSPost2010Prop36
280
     0
102
RTVSPost2010PropOp36
 70
     1
102
RTVSPost2010Prop37
 90
       50
102
RTVSPost2010PropOp37
 70
     1
102
RTVSPost2010Prop38
140
0.0
102
RTVSPost2010PropOp38
 70
     1
102
RTVSPost2010Prop39
140
1.0
102
RTVSPost2010PropOp39
 70
     1
102
RTVSPost2010Prop40
 90
        0
102
RTVSPost2010PropOp40
 70
     1
102
RTVSPost2010Prop41ColorIndex
 90
       18
102
RTVSPost2010Prop41ColorRGB
 90
        0
102
RTVSPost2010PropOp41
 70
     1
102
RTVSPost2010Prop42
 90
       50
102
RTVSPost2010PropOp42
 70
     1
102
RTVSPost2010Prop43
 90
        3
102
RTVSPost2010PropOp43
 70
     1
102
RTVSPost2010Prop44ColorIndex
 90
        5
102
RTVSPost2010Prop44ColorRGB
 90
      255
102
RTVSPost2010PropOp44
 70
     1
102
RTVSPost2010Prop45
280
     0
102
RTVSPost2010PropOp45
 70
     1
102
RTVSPost2010Prop46
 90
       50
102
RTVSPost2010PropOp46
 70
     1
102
RTVSPost2010Prop47
 90
       50
102
RTVSPost2010PropOp47
 70
     1
102
RTVSPost2010Prop48
 90
       50
102
RTVSPost2010PropOp48
 70
     1
102
RTVSPost2010Prop49
280
     0
102
RTVSPost2010PropOp49
 70
     1
102
RTVSPost2010Prop50
 90
       50
102
RTVSPost2010PropOp50
 70
     1
102
RTVSPost2010Prop51ColorIndex
 90
      256
102
RTVSPost2010Prop51ColorRGB
 90
-16777216
102
RTVSPost2010PropOp51
 70
     0
102
RTVSPost2010Prop52
140
1.0
102
RTVSPost2010PropOp52
 70
     0
102
RTVSPost2010Prop53
 90
        2
102
RTVSPost2010PropOp53
 70
     1
102
RTVSPost2010Prop54
  1
strokes_ogs.tif
102
RTVSPost2010PropOp54
 70
     1
102
RTVSPost2010Prop55
280
     0
102
RTVSPost2010PropOp55
 70
     1
102
RTVSPost2010Prop56
140
1.0
102
RTVSPost2010PropOp56
 70
     1
102
RTVSPost2010Prop57
140
1.0
102
RTVSPost2010PropOp57
 70
     1
  0
XRECORD
  5
37D
102
{ACAD_REACTORS
330
37C
102
}
330
37C
100
AcDbXrecord
280
     1
102
RTVSPropertyOp0
 70
     1
102
RTVSPropertyOp1
 70
     1
102
RTVSPropertyOp2
 70
     1
102
RTVSPropertyOp3
 70
     1
102
RTVSPropertyOp4
 70
     1
102
RTVSPropertyOp5
 70
     1
102
RTVSPropertyOp6
 70
     1
102
RTVSPropertyOp7
 70
     1
102
RTVSPropertyOp8
 70
     1
102
RTVSPropertyOp9
 70
     1
102
RTVSPropertyOp10
 70
     1
102
RTVSPropertyOp11
 70
     1
102
RTVSPropertyOp12
 70
     1
102
RTVSPropertyOp13
 70
     1
102
RTVSPropertyOp14
 70
     1
102
RTVSPropertyOp15
 70
     1
102
RTVSPropertyOp16
 70
     1
102
RTVSPropertyOp17
 70
     1
102
RTVSPropertyOp18
 70
     1
102
RTVSPropertyOp19
 70
     1
102
RTVSPropertyOp20
 70
     1
102
RTVSPropertyOp21
 70
     1
102
RTVSPropertyOp22
 70
     1
102
RTVSPropertyOp23
 70
     1
102
RTVSPropertyOp24
 70
     1
102
RTVSPropertyOp25
 70
     1
102
RTVSPropertyOp26
 70
     1
102
RTVSPropertyOp27
 70
     1
102
RTVSPropertyOp28
 70
     1
102
RTVSPropertyOp29
 70
     1
102
RTVSPropertyOp30
 70
     1
102
RTVSPropertyOp31
 70
     1
102
RTVSPropertyOp32
 70
     1
102
RTVSPropertyOp33
 70
     1
102
RTVSPropertyOp34
 70
     1
102
RTVSPropertyOp35
 70
     1
102
RTVSPropertyOp36
 70
     1
102
RTVSPropertyOp37
 70
     1
102
RTVSPropertyOp38
 70
     1
102
RTVSPropertyOp39
 70
     1
102
RTVSPropertyOp40
 70
     1
102
RTVSPropertyOp41
 70
     1
102
RTVSPropertyOp42
 70
     1
102
RTVSPropertyOp43
 70
     1
102
RTVSPropertyOp44
 70
     1
102
RTVSPropertyOp45
 70
     1
102
RTVSPropertyOp46
 70
     1
102
RTVSPropertyOp47
 70
     1
102
RTVSPropertyOp48
 70
     1
102
RTVSPropertyOp49
 70
     1
102
RTVSPropertyOp50
 70
     1
102
RTVSPropertyOp51
 70
     0
102
RTVSPropertyOp52
 70
     0
102
RTVSPropertyOp53
 70
     1
102
RTVSPropertyOp54
 70
     1
102
RTVSPropertyOp55
 70
     1
102
RTVSPropertyOp56
 70
     1
102
RTVSPropertyOp57
 70
     1
102
RTVSPost2010Prop28
280
     0
102
RTVSPost2010PropOp28
 70
     1
102
RTVSPost2010Prop29
280
     1
102
RTVSPost2010PropOp29
 70
     1
102
RTVSPost2010Prop30
280
     1
102
RTVSPost2010PropOp30
 70
     1
102
RTVSPost2010Prop31
280
     0
102
RTVSPost2010PropOp31
 70
     1
102
RTVSPost2010Prop32
280
     0
102
RTVSPost2010PropOp32
 70
     1
102
RTVSPost2010Prop33
280
     0
102
RTVSPost2010PropOp33
 70
     1
102
RTVSPost2010Prop34
280
     0
102
RTVSPost2010PropOp34
 70
     1
102
RTVSPost2010Prop35
280
     0
102
RTVSPost2010PropOp35
 70
     1
102
RTVSPost2010Prop36
280
     0
102
RTVSPost2010PropOp36
 70
     1
102
RTVSPost2010Prop37
 90
       50
102
RTVSPost2010PropOp37
 70
     1
102
RTVSPost2010Prop38
140
0.0
102
RTVSPost2010PropOp38
 70
     1
102
RTVSPost2010Prop39
140
1.0
102
RTVSPost2010PropOp39
 70
     1
102
RTVSPost2010Prop40
 90
        0
102
RTVSPost2010PropOp40
 70
     1
102
RTVSPost2010Prop41ColorIndex
 90
       18
102
RTVSPost2010Prop41ColorRGB
 90
        0
102
RTVSPost2010PropOp41
 70
     1
102
RTVSPost2010Prop42
 90
       50
102
RTVSPost2010PropOp42
 70
     1
102
RTVSPost2010Prop43
 90
        3
102
RTVSPost2010PropOp43
 70
     1
102
RTVSPost2010Prop44ColorIndex
 90
        5
102
RTVSPost2010Prop44ColorRGB
 90
      255
102
RTVSPost2010PropOp44
 70
     1
102
RTVSPost2010Prop45
280
     0
102
RTVSPost2010PropOp45
 70
     1
102
RTVSPost2010Prop46
 90
       50
102
RTVSPost2010PropOp46
 70
     1
102
RTVSPost2010Prop47
 90
       50
102
RTVSPost2010PropOp47
 70
     1
102
RTVSPost2010Prop48
 90
       50
102
RTVSPost2010PropOp48
 70
     1
102
RTVSPost2010Prop49
280
     0
102
RTVSPost2010PropOp49
 70
     1
102
RTVSPost2010Prop50
 90
       50
102
RTVSPost2010PropOp50
 70
     1
102
RTVSPost2010Prop51ColorIndex
 90
      256
102
RTVSPost2010Prop51ColorRGB
 90
-16777216
102
RTVSPost2010PropOp51
 70
     0
102
RTVSPost2010Prop52
140
1.0
102
RTVSPost2010PropOp52
 70
     0
102
RTVSPost2010Prop53
 90
        2
102
RTVSPost2010PropOp53
 70
     1
102
RTVSPost2010Prop54
  1
strokes_ogs.tif
102
RTVSPost2010PropOp54
 70
     1
102
RTVSPost2010Prop55
280
     0
102
RTVSPost2010PropOp55
 70
     1
102
RTVSPost2010Prop56
140
1.0
102
RTVSPost2010PropOp56
 70
     1
102
RTVSPost2010Prop57
140
1.0
102
RTVSPost2010PropOp57
 70
     1
  0
XRECORD
  5
36D
102
{ACAD_REACTORS
330
36C
102
}
330
36C
100
AcDbXrecord
280
     1
102
RTVSPropertyOp0
 70
     1
102
RTVSPropertyOp1
 70
     1
102
RTVSPropertyOp2
 70
     1
102
RTVSPropertyOp3
 70
     1
102
RTVSPropertyOp4
 70
     1
102
RTVSPropertyOp5
 70
     1
102
RTVSPropertyOp6
 70
     1
102
RTVSPropertyOp7
 70
     1
102
RTVSPropertyOp8
 70
     1
102
RTVSPropertyOp9
 70
     1
102
RTVSPropertyOp10
 70
     1
102
RTVSPropertyOp11
 70
     1
102
RTVSPropertyOp12
 70
     1
102
RTVSPropertyOp13
 70
     1
102
RTVSPropertyOp14
 70
     1
102
RTVSPropertyOp15
 70
     1
102
RTVSPropertyOp16
 70
     1
102
RTVSPropertyOp17
 70
     1
102
RTVSPropertyOp18
 70
     1
102
RTVSPropertyOp19
 70
     1
102
RTVSPropertyOp20
 70
     1
102
RTVSPropertyOp21
 70
     1
102
RTVSPropertyOp22
 70
     1
102
RTVSPropertyOp23
 70
     1
102
RTVSPropertyOp24
 70
     1
102
RTVSPropertyOp25
 70
     1
102
RTVSPropertyOp26
 70
     1
102
RTVSPropertyOp27
 70
     1
102
RTVSPropertyOp28
 70
     1
102
RTVSPropertyOp29
 70
     1
102
RTVSPropertyOp30
 70
     1
102
RTVSPropertyOp31
 70
     1
102
RTVSPropertyOp32
 70
     1
102
RTVSPropertyOp33
 70
     1
102
RTVSPropertyOp34
 70
     1
102
RTVSPropertyOp35
 70
     1
102
RTVSPropertyOp36
 70
     1
102
RTVSPropertyOp37
 70
     1
102
RTVSPropertyOp38
 70
     1
102
RTVSPropertyOp39
 70
     1
102
RTVSPropertyOp40
 70
     1
102
RTVSPropertyOp41
 70
     1
102
RTVSPropertyOp42
 70
     1
102
RTVSPropertyOp43
 70
     1
102
RTVSPropertyOp44
 70
     1
102
RTVSPropertyOp45
 70
     1
102
RTVSPropertyOp46
 70
     1
102
RTVSPropertyOp47
 70
     1
102
RTVSPropertyOp48
 70
     1
102
RTVSPropertyOp49
 70
     1
102
RTVSPropertyOp50
 70
     1
102
RTVSPropertyOp51
 70
     0
102
RTVSPropertyOp52
 70
     0
102
RTVSPropertyOp53
 70
     1
102
RTVSPropertyOp54
 70
     1
102
RTVSPropertyOp55
 70
     1
102
RTVSPropertyOp56
 70
     1
102
RTVSPropertyOp57
 70
     1
102
RTVSPost2010Prop28
280
     0
102
RTVSPost2010PropOp28
 70
     1
102
RTVSPost2010Prop29
280
     1
102
RTVSPost2010PropOp29
 70
     1
102
RTVSPost2010Prop30
280
     1
102
RTVSPost2010PropOp30
 70
     1
102
RTVSPost2010Prop31
280
     0
102
RTVSPost2010PropOp31
 70
     1
102
RTVSPost2010Prop32
280
     0
102
RTVSPost2010PropOp32
 70
     1
102
RTVSPost2010Prop33
280
     0
102
RTVSPost2010PropOp33
 70
     1
102
RTVSPost2010Prop34
280
     0
102
RTVSPost2010PropOp34
 70
     1
102
RTVSPost2010Prop35
280
     0
102
RTVSPost2010PropOp35
 70
     1
102
RTVSPost2010Prop36
280
     0
102
RTVSPost2010PropOp36
 70
     1
102
RTVSPost2010Prop37
 90
       50
102
RTVSPost2010PropOp37
 70
     1
102
RTVSPost2010Prop38
140
0.0
102
RTVSPost2010PropOp38
 70
     1
102
RTVSPost2010Prop39
140
1.0
102
RTVSPost2010PropOp39
 70
     1
102
RTVSPost2010Prop40
 90
        0
102
RTVSPost2010PropOp40
 70
     1
102
RTVSPost2010Prop41ColorIndex
 90
       18
102
RTVSPost2010Prop41ColorRGB
 90
        0
102
RTVSPost2010PropOp41
 70
     1
102
RTVSPost2010Prop42
 90
       50
102
RTVSPost2010PropOp42
 70
     1
102
RTVSPost2010Prop43
 90
        3
102
RTVSPost2010PropOp43
 70
     1
102
RTVSPost2010Prop44ColorIndex
 90
        5
102
RTVSPost2010Prop44ColorRGB
 90
      255
102
RTVSPost2010PropOp44
 70
     1
102
RTVSPost2010Prop45
280
     0
102
RTVSPost2010PropOp45
 70
     1
102
RTVSPost2010Prop46
 90
       50
102
RTVSPost2010PropOp46
 70
     1
102
RTVSPost2010Prop47
 90
       50
102
RTVSPost2010PropOp47
 70
     1
102
RTVSPost2010Prop48
 90
       50
102
RTVSPost2010PropOp48
 70
     1
102
RTVSPost2010Prop49
280
     0
102
RTVSPost2010PropOp49
 70
     1
102
RTVSPost2010Prop50
 90
       50
102
RTVSPost2010PropOp50
 70
     1
102
RTVSPost2010Prop51ColorIndex
 90
      256
102
RTVSPost2010Prop51ColorRGB
 90
-16777216
102
RTVSPost2010PropOp51
 70
     0
102
RTVSPost2010Prop52
140
1.0
102
RTVSPost2010PropOp52
 70
     0
102
RTVSPost2010Prop53
 90
        2
102
RTVSPost2010PropOp53
 70
     1
102
RTVSPost2010Prop54
  1
strokes_ogs.tif
102
RTVSPost2010PropOp54
 70
     1
102
RTVSPost2010Prop55
280
     0
102
RTVSPost2010PropOp55
 70
     1
102
RTVSPost2010Prop56
140
1.0
102
RTVSPost2010PropOp56
 70
     1
102
RTVSPost2010Prop57
140
1.0
102
RTVSPost2010PropOp57
 70
     1
  0
XRECORD
  5
35F
102
{ACAD_REACTORS
330
35E
102
}
330
35E
100
AcDbXrecord
280
     1
102
RTVSPropertyOp0
 70
     1
102
RTVSPropertyOp1
 70
     1
102
RTVSPropertyOp2
 70
     1
102
RTVSPropertyOp3
 70
     1
102
RTVSPropertyOp4
 70
     1
102
RTVSPropertyOp5
 70
     1
102
RTVSPropertyOp6
 70
     1
102
RTVSPropertyOp7
 70
     1
102
RTVSPropertyOp8
 70
     1
102
RTVSPropertyOp9
 70
     1
102
RTVSPropertyOp10
 70
     1
102
RTVSPropertyOp11
 70
     1
102
RTVSPropertyOp12
 70
     1
102
RTVSPropertyOp13
 70
     1
102
RTVSPropertyOp14
 70
     1
102
RTVSPropertyOp15
 70
     1
102
RTVSPropertyOp16
 70
     1
102
RTVSPropertyOp17
 70
     1
102
RTVSPropertyOp18
 70
     1
102
RTVSPropertyOp19
 70
     1
102
RTVSPropertyOp20
 70
     1
102
RTVSPropertyOp21
 70
     1
102
RTVSPropertyOp22
 70
     1
102
RTVSPropertyOp23
 70
     1
102
RTVSPropertyOp24
 70
     1
102
RTVSPropertyOp25
 70
     1
102
RTVSPropertyOp26
 70
     1
102
RTVSPropertyOp27
 70
     1
102
RTVSPropertyOp28
 70
     1
102
RTVSPropertyOp29
 70
     1
102
RTVSPropertyOp30
 70
     1
102
RTVSPropertyOp31
 70
     1
102
RTVSPropertyOp32
 70
     1
102
RTVSPropertyOp33
 70
     1
102
RTVSPropertyOp34
 70
     1
102
RTVSPropertyOp35
 70
     1
102
RTVSPropertyOp36
 70
     1
102
RTVSPropertyOp37
 70
     1
102
RTVSPropertyOp38
 70
     1
102
RTVSPropertyOp39
 70
     1
102
RTVSPropertyOp40
 70
     1
102
RTVSPropertyOp41
 70
     1
102
RTVSPropertyOp42
 70
     1
102
RTVSPropertyOp43
 70
     1
102
RTVSPropertyOp44
 70
     1
102
RTVSPropertyOp45
 70
     1
102
RTVSPropertyOp46
 70
     1
102
RTVSPropertyOp47
 70
     1
102
RTVSPropertyOp48
 70
     1
102
RTVSPropertyOp49
 70
     1
102
RTVSPropertyOp50
 70
     1
102
RTVSPropertyOp51
 70
     0
102
RTVSPropertyOp52
 70
     0
102
RTVSPropertyOp53
 70
     1
102
RTVSPropertyOp54
 70
     1
102
RTVSPropertyOp55
 70
     1
102
RTVSPropertyOp56
 70
     1
102
RTVSPropertyOp57
 70
     1
102
RTVSPost2010Prop28
280
     0
102
RTVSPost2010PropOp28
 70
     1
102
RTVSPost2010Prop29
280
     1
102
RTVSPost2010PropOp29
 70
     1
102
RTVSPost2010Prop30
280
     1
102
RTVSPost2010PropOp30
 70
     1
102
RTVSPost2010Prop31
280
     0
102
RTVSPost2010PropOp31
 70
     1
102
RTVSPost2010Prop32
280
     0
102
RTVSPost2010PropOp32
 70
     1
102
RTVSPost2010Prop33
280
     0
102
RTVSPost2010PropOp33
 70
     1
102
RTVSPost2010Prop34
280
     0
102
RTVSPost2010PropOp34
 70
     1
102
RTVSPost2010Prop35
280
     0
102
RTVSPost2010PropOp35
 70
     1
102
RTVSPost2010Prop36
280
     0
102
RTVSPost2010PropOp36
 70
     1
102
RTVSPost2010Prop37
 90
       50
102
RTVSPost2010PropOp37
 70
     1
102
RTVSPost2010Prop38
140
0.0
102
RTVSPost2010PropOp38
 70
     1
102
RTVSPost2010Prop39
140
1.0
102
RTVSPost2010PropOp39
 70
     1
102
RTVSPost2010Prop40
 90
        0
102
RTVSPost2010PropOp40
 70
     1
102
RTVSPost2010Prop41ColorIndex
 90
       18
102
RTVSPost2010Prop41ColorRGB
 90
        0
102
RTVSPost2010PropOp41
 70
     1
102
RTVSPost2010Prop42
 90
       50
102
RTVSPost2010PropOp42
 70
     1
102
RTVSPost2010Prop43
 90
        3
102
RTVSPost2010PropOp43
 70
     1
102
RTVSPost2010Prop44ColorIndex
 90
        5
102
RTVSPost2010Prop44ColorRGB
 90
      255
102
RTVSPost2010PropOp44
 70
     1
102
RTVSPost2010Prop45
280
     0
102
RTVSPost2010PropOp45
 70
     1
102
RTVSPost2010Prop46
 90
       50
102
RTVSPost2010PropOp46
 70
     1
102
RTVSPost2010Prop47
 90
       50
102
RTVSPost2010PropOp47
 70
     1
102
RTVSPost2010Prop48
 90
       50
102
RTVSPost2010PropOp48
 70
     1
102
RTVSPost2010Prop49
280
     0
102
RTVSPost2010PropOp49
 70
     1
102
RTVSPost2010Prop50
 90
       50
102
RTVSPost2010PropOp50
 70
     1
102
RTVSPost2010Prop51ColorIndex
 90
      256
102
RTVSPost2010Prop51ColorRGB
 90
-16777216
102
RTVSPost2010PropOp51
 70
     0
102
RTVSPost2010Prop52
140
1.0
102
RTVSPost2010PropOp52
 70
     0
102
RTVSPost2010Prop53
 90
        2
102
RTVSPost2010PropOp53
 70
     1
102
RTVSPost2010Prop54
  1
strokes_ogs.tif
102
RTVSPost2010PropOp54
 70
     1
102
RTVSPost2010Prop55
280
     0
102
RTVSPost2010PropOp55
 70
     1
102
RTVSPost2010Prop56
140
1.0
102
RTVSPost2010PropOp56
 70
     1
102
RTVSPost2010Prop57
140
1.0
102
RTVSPost2010PropOp57
 70
     1
  0
XRECORD
  5
37F
102
{ACAD_REACTORS
330
37E
102
}
330
37E
100
AcDbXrecord
280
     1
102
RTVSPropertyOp0
 70
     1
102
RTVSPropertyOp1
 70
     1
102
RTVSPropertyOp2
 70
     1
102
RTVSPropertyOp3
 70
     1
102
RTVSPropertyOp4
 70
     1
102
RTVSPropertyOp5
 70
     1
102
RTVSPropertyOp6
 70
     1
102
RTVSPropertyOp7
 70
     1
102
RTVSPropertyOp8
 70
     1
102
RTVSPropertyOp9
 70
     1
102
RTVSPropertyOp10
 70
     1
102
RTVSPropertyOp11
 70
     1
102
RTVSPropertyOp12
 70
     1
102
RTVSPropertyOp13
 70
     1
102
RTVSPropertyOp14
 70
     1
102
RTVSPropertyOp15
 70
     1
102
RTVSPropertyOp16
 70
     1
102
RTVSPropertyOp17
 70
     1
102
RTVSPropertyOp18
 70
     1
102
RTVSPropertyOp19
 70
     1
102
RTVSPropertyOp20
 70
     1
102
RTVSPropertyOp21
 70
     1
102
RTVSPropertyOp22
 70
     1
102
RTVSPropertyOp23
 70
     1
102
RTVSPropertyOp24
 70
     1
102
RTVSPropertyOp25
 70
     1
102
RTVSPropertyOp26
 70
     1
102
RTVSPropertyOp27
 70
     1
102
RTVSPropertyOp28
 70
     1
102
RTVSPropertyOp29
 70
     1
102
RTVSPropertyOp30
 70
     1
102
RTVSPropertyOp31
 70
     1
102
RTVSPropertyOp32
 70
     1
102
RTVSPropertyOp33
 70
     1
102
RTVSPropertyOp34
 70
     1
102
RTVSPropertyOp35
 70
     1
102
RTVSPropertyOp36
 70
     1
102
RTVSPropertyOp37
 70
     1
102
RTVSPropertyOp38
 70
     1
102
RTVSPropertyOp39
 70
     1
102
RTVSPropertyOp40
 70
     1
102
RTVSPropertyOp41
 70
     1
102
RTVSPropertyOp42
 70
     1
102
RTVSPropertyOp43
 70
     1
102
RTVSPropertyOp44
 70
     1
102
RTVSPropertyOp45
 70
     1
102
RTVSPropertyOp46
 70
     1
102
RTVSPropertyOp47
 70
     1
102
RTVSPropertyOp48
 70
     1
102
RTVSPropertyOp49
 70
     1
102
RTVSPropertyOp50
 70
     1
102
RTVSPropertyOp51
 70
     0
102
RTVSPropertyOp52
 70
     0
102
RTVSPropertyOp53
 70
     1
102
RTVSPropertyOp54
 70
     1
102
RTVSPropertyOp55
 70
     1
102
RTVSPropertyOp56
 70
     1
102
RTVSPropertyOp57
 70
     1
102
RTVSPost2010Prop28
280
     0
102
RTVSPost2010PropOp28
 70
     1
102
RTVSPost2010Prop29
280
     1
102
RTVSPost2010PropOp29
 70
     1
102
RTVSPost2010Prop30
280
     1
102
RTVSPost2010PropOp30
 70
     1
102
RTVSPost2010Prop31
280
     0
102
RTVSPost2010PropOp31
 70
     1
102
RTVSPost2010Prop32
280
     0
102
RTVSPost2010PropOp32
 70
     1
102
RTVSPost2010Prop33
280
     0
102
RTVSPost2010PropOp33
 70
     1
102
RTVSPost2010Prop34
280
     0
102
RTVSPost2010PropOp34
 70
     1
102
RTVSPost2010Prop35
280
     0
102
RTVSPost2010PropOp35
 70
     1
102
RTVSPost2010Prop36
280
     0
102
RTVSPost2010PropOp36
 70
     1
102
RTVSPost2010Prop37
 90
       50
102
RTVSPost2010PropOp37
 70
     1
102
RTVSPost2010Prop38
140
0.0
102
RTVSPost2010PropOp38
 70
     1
102
RTVSPost2010Prop39
140
1.0
102
RTVSPost2010PropOp39
 70
     1
102
RTVSPost2010Prop40
 90
        0
102
RTVSPost2010PropOp40
 70
     1
102
RTVSPost2010Prop41ColorIndex
 90
       18
102
RTVSPost2010Prop41ColorRGB
 90
        0
102
RTVSPost2010PropOp41
 70
     1
102
RTVSPost2010Prop42
 90
       50
102
RTVSPost2010PropOp42
 70
     1
102
RTVSPost2010Prop43
 90
        3
102
RTVSPost2010PropOp43
 70
     1
102
RTVSPost2010Prop44ColorIndex
 90
        5
102
RTVSPost2010Prop44ColorRGB
 90
      255
102
RTVSPost2010PropOp44
 70
     1
102
RTVSPost2010Prop45
280
     0
102
RTVSPost2010PropOp45
 70
     1
102
RTVSPost2010Prop46
 90
       50
102
RTVSPost2010PropOp46
 70
     1
102
RTVSPost2010Prop47
 90
       50
102
RTVSPost2010PropOp47
 70
     1
102
RTVSPost2010Prop48
 90
       50
102
RTVSPost2010PropOp48
 70
     1
102
RTVSPost2010Prop49
280
     0
102
RTVSPost2010PropOp49
 70
     1
102
RTVSPost2010Prop50
 90
       50
102
RTVSPost2010PropOp50
 70
     1
102
RTVSPost2010Prop51ColorIndex
 90
      256
102
RTVSPost2010Prop51ColorRGB
 90
-16777216
102
RTVSPost2010PropOp51
 70
     0
102
RTVSPost2010Prop52
140
1.0
102
RTVSPost2010PropOp52
 70
     0
102
RTVSPost2010Prop53
 90
        2
102
RTVSPost2010PropOp53
 70
     1
102
RTVSPost2010Prop54
  1
strokes_ogs.tif
102
RTVSPost2010PropOp54
 70
     1
102
RTVSPost2010Prop55
280
     0
102
RTVSPost2010PropOp55
 70
     1
102
RTVSPost2010Prop56
140
1.0
102
RTVSPost2010PropOp56
 70
     1
102
RTVSPost2010Prop57
140
1.0
102
RTVSPost2010PropOp57
 70
     1
  0
ENDSEC
  0
EOF
